<?xml version="1.0" standalone="no"?>
<!DOCTYPE svg PUBLIC "-//W3C//DTD SVG 1.1//EN" "http://www.w3.org/Graphics/SVG/1.1/DTD/svg11.dtd" >
<svg xmlns="http://www.w3.org/2000/svg">
<metadata></metadata>
<defs>
<font id="omsym3regular" horiz-adv-x="1024" >
<font-face units-per-em="2048" ascent="1638" descent="-410" />
<missing-glyph horiz-adv-x="500" />
<glyph horiz-adv-x="2048" />
<glyph horiz-adv-x="2048" />
<glyph unicode="&#xd;" />
<glyph unicode=" " />
<glyph unicode="!" horiz-adv-x="2265" d="M6 106v943l361 360q2 2 9 6t15 7t16.5 5.5t10.5 2.5h590q4 0 25.5 -8.5t25.5 -12.5l350 -346h723q23 0 44.5 -15.5t37.5 -37t26.5 -47t10.5 -45.5v-773q0 -18 -9.5 -42.5t-24.5 -46t-35.5 -36t-41.5 -14.5h-2034q-12 0 -29.5 11.5t-32.5 27.5t-26.5 32.5t-11.5 28.5z M127 145l18 -18h1956l21 18v773q0 6 -17 14q-8 4 -14 6h-1964v-793zM207 1069h1022l-240 240h-543q-27 0 -60.5 -30t-68 -70t-64.5 -79.5t-46 -60.5zM768 657q23 18 31 46t8 55h844q0 -27 8 -54.5t31 -46.5l-461 -460zM969 637l260 -260l260 260h-520z" />
<glyph unicode="&#x22;" horiz-adv-x="2932" />
<glyph unicode="#" horiz-adv-x="2265" d="M0 121v897q0 4 8 24.5t12 24.5l342 342l50 21h594q4 0 14 -4.5t22.5 -9.5t21.5 -10t11 -7l338 -336h709q18 0 39.5 -12.5t40 -32t30 -42t11.5 -40.5v-815q0 -16 -12.5 -38t-31 -40t-39 -30.5t-38.5 -12.5h-1991q-18 0 -41.5 11.5t-43 28.5t-33 38.5t-13.5 42.5zM121 131 h2001v784l-19 21h-1982v-805zM190 1067h1037l-242 242h-543zM664 403l462 463l463 -463q-23 -18 -39 -44.5t-12 -55.5h-833q0 27 -9.5 54.5t-31.5 45.5zM864 424h525l-263 260z" />
<glyph unicode="$" horiz-adv-x="2048" d="M23 303q0 45 20 64q33 33 117 84q72 43 143 86q483 301 1561 964q33 18 65 19q47 0 78 -41q25 -35 25 -70q0 -4 4 -18q2 -8 -3 -17.5t-22 -25.5q-47 -45 -131 -95q-72 -41 -141 -82q-84 -51 -266 -163q-1305 -809 -1342 -809q-43 0 -75.5 31.5t-32.5 72.5zM375 602v541 h471l829 479q15 -14 19 -14q2 -33 6 -82q2 -41 2 -56q0 -37 -15.5 -55t-72.5 -49q-260 -139 -625 -371q-307 -197 -614 -393zM795 569l880 543l-43 -1073q-18 0 -22 -12z" />
<glyph unicode="%" />
<glyph unicode="(" horiz-adv-x="1464" d="M3 458.5q1 10.5 1 26.5q0 8 3 22.5t10.5 29t16.5 23.5t21 9h140q2 14 6 27q2 10 4 21.5t4 19.5v4v4q0 4 -6 11.5t-8 11.5q2 8 10 29.5t18 46t18.5 46t10.5 29.5q4 14 14 15h8l80 -160q4 -6 -1 -10.5t-14 -7.5t-18.5 -5t-11.5 -6q-10 -12 -15 -19.5t-7 -14.5t-2 -16v-24 h90q2 0 5 10.5t7 23.5t7 24.5t3 15.5t-7 10.5t-7 14.5v4l57 153q4 6 13 7q6 0 10 -7l74 -145v-4q0 -12 -11.5 -22.5t-24 -22.5t-23.5 -26.5t-11 -35.5h98q2 14 6 27q2 10 4.5 20.5t4.5 18.5v4q0 8 -4.5 14.5t-4.5 14.5v4l60 160h6q12 0 16 -7l72 -153q2 -2 -9 -10.5 t-24.5 -18.5t-26 -22.5t-12.5 -20.5q0 -4 1 -17.5t1 -15.5h164q2 -2 6 -4t5 -4t4 -4q4 -4 13 -11t9 -9l254 -328q16 -18 16 -41q0 -6 -4 -16.5t-10 -21.5t-14 -19.5t-17 -8.5h-422q0 -2 -2 -4q-4 -4 -4 -6q-4 -4 -10 -15t-12 -24.5t-13.5 -25t-9.5 -15.5q-8 -10 -21.5 -9 t-21.5 1h-28q-8 4 -9 12v2l37 80h-94q-4 -4 -10 -15t-12.5 -23.5t-13.5 -24.5t-9 -17l-14 -14h-66l-6 8l39 86h-90q-2 -2 -4 -2l-4 -4q-2 -4 -8.5 -15t-12.5 -24.5t-13 -25t-9 -15.5q-8 -10 -21.5 -9t-21.5 1h-31q-6 4 -6 12v2l37 80l-31 31l-152 305q-10 14 -9 24.5z M88 477l141 -282h17l57 114v23q0 4 -9 22.5t-21.5 42t-24.5 45t-19 29.5l-4 4l-2 2h-135zM317 477q4 -6 14.5 -24.5t22 -41t20.5 -45t9 -40.5q0 -37 -21.5 -68t-21.5 -63h90l55 108v37l-73 137h-95zM504 477l61 -123v-26q0 -41 -12 -66.5t-31 -66.5h94l58 114v23 q0 4 -9.5 22.5t-21.5 42t-23.5 45t-17.5 29.5l-4 4q-2 2 -4 2h-90zM688 477l66 -131v-14q0 -39 -12.5 -69t-30.5 -62v-6h299l-228 282h-94zM893 580v6l248 772q10 33 32.5 53.5t57.5 20.5q29 0 57.5 -10.5t56 -24t53 -28.5t48.5 -26q6 -4 6 -14v-8l-276 -1004l-7 -22 q-4 4 -17 6t-19 2q-4 0 -11.5 -7t-11.5 -7q-4 -4 -8 -6t-6 -2q-31 12 -65 40.5t-63.5 65.5t-49 75.5t-19.5 69.5q0 8 7 10.5t7 10.5q0 10 -10 11t-10 16zM987 557q20 -29 41 -53q16 -23 35.5 -46.5t32.5 -37.5l8 -8l6 8l238 872l-117 51l-244 -763v-23z" />
<glyph unicode=")" horiz-adv-x="1441" d="M2 715q0 147 56.5 278t152.5 227.5t227 153t279 56.5q145 0 275 -54.5t228.5 -150t156 -223.5t57.5 -277q0 -147 -56.5 -279.5t-153 -231.5t-227.5 -156.5t-280 -57.5q-147 0 -277.5 56.5t-227.5 153.5t-153.5 227.5t-56.5 277.5zM90 690q0 -12 4 -47t11.5 -70.5 t16.5 -64.5t19 -29h240q0 18 -4 48t-9.5 62t-10.5 59.5t-7 41.5h-260zM94 791h250q4 47 11 104t7 106h-200q-12 0 -24.5 -30.5t-22 -69.5t-15.5 -71.5t-6 -38.5zM188 385q0 -41 37 -81t88.5 -73.5t102.5 -59.5t80 -40v6q-27 55 -52.5 125t-42.5 123h-213zM227 1104h154 q2 0 9 24.5t14.5 54t13.5 54.5t6 27v6q-18 -8 -52 -27.5t-66 -43t-55.5 -47.5t-23.5 -42v-6zM442 791h222v210h-203l-4 -12q-4 -12 -4 -16q-8 -49 -9.5 -88t-1.5 -94zM446 690q0 -12 3.5 -47t8.5 -70.5t9 -64.5t8 -29h189v211h-218zM481 1104h183v239q-29 0 -58.5 -7 t-58.5 -15q-12 -23 -24.5 -50.5t-21.5 -58t-14.5 -59.5t-5.5 -49zM504 371q0 -23 13 -61t31.5 -76.5t36 -72.5t27.5 -52q6 -10 23.5 -12.5t28.5 -2.5v291h-160v-14zM766 94h23.5t31 1t27.5 6t18 16q35 66 62.5 131t46.5 137h-209v-291zM766 479h231l9 15q2 6 6 30.5t8 55 t7 61.5t3 49h-264v-211zM766 791h268v43.5t-2 70.5t-7 66.5t-13 29.5h-246v-210zM766 1104h231q0 18 -6 44t-15 53.5t-18.5 53t-17.5 43.5q-8 14 -31.5 22.5t-49 13.5t-50.5 7t-33 2h-10v-239zM989 154q35 14 76 38.5t79 55.5t67.5 65.5t39.5 71.5h-174l-8 -8 q-12 -57 -34.5 -114.5t-45.5 -108.5zM1053 1248q0 -3 2 -3q4 0 4 3t-4 3q-2 0 -2 -3zM1063 1219q2 -14 7 -33t9 -37q6 -23 13 -45h122q-8 18 -25.5 39.5t-39 41t-45 35t-41.5 21.5v-10v-12zM1100 479h194q14 0 23.5 31t15.5 69.5t9.5 72.5t3.5 38h-218q-6 0 -12 -26.5 t-9 -61.5t-5 -69.5t-2 -53.5zM1114 1001q0 -53 5 -107t9 -103h211q0 14 -5 50t-13 70.5t-20.5 62t-26.5 27.5h-160z" />
<glyph unicode="+" horiz-adv-x="1966" d="M-29 858l4 150l1985 4l4 -154l-410 -4q-4 0 -9 -13.5t-10 -30.5t-9 -33.5t-6 -20.5q-37 -78 -91.5 -142.5t-123 -112.5t-150.5 -75t-172 -27q-121 -2 -215 36t-165 102.5t-122 150.5t-86 182zM29 522l342 178l88 -118l-346 -176zM389 141l199 308l127 -72l-193 -314z M563 854q35 -154 131.5 -230.5t268.5 -76.5q76 0 152.5 18.5t138 56t100.5 96t39 136.5l-795 4zM913 -25v351l127 -7l11 -339zM1239 371l123 67q18 -16 49 -60t61.5 -94.5t57 -93.5t35.5 -57l-129 -70zM1491 573l84 109q18 -16 66.5 -43t102.5 -55.5t98 -54t52 -40.5 l-73 -118z" />
<glyph unicode="," horiz-adv-x="1314" d="M0 573v811h131q6 0 8 -13t8.5 -29.5t20.5 -30t43 -13.5q37 0 66.5 27t64.5 43q115 66 244 66q63 0 109 -6.5t86 -21.5t76 -40t79 -61q20 -16 30.5 -48t34.5 -45q12 -10 33 -11t33 -5q31 -10 48.5 -35.5t27.5 -57.5t14 -64.5t6 -59.5q10 -4 30.5 -24.5t25.5 -28.5 q4 -4 12 -19.5t8 -23.5v-88q35 -25 47 -60t12 -76q0 -25 -11 -51t-29.5 -48.5t-43 -37t-51.5 -14.5h-211q0 -33 12.5 -64.5t16.5 -64.5q8 -49 11 -100.5t3 -104.5q0 -23 -1 -52.5t-10 -57t-27.5 -46t-51.5 -18.5q-43 0 -62.5 24.5t-28.5 59.5t-13 73t-17 64q-20 45 -53 90 t-76 82t-93 60.5t-101 27.5l-207 17q-18 2 -31.5 14t-27 25.5t-27.5 24.5t-33 11h-135z" />
<glyph unicode="-" horiz-adv-x="1323" d="M0 47v815q8 0 27.5 1t41 2t41 2t27.5 1q18 2 30.5 11.5t23 19.5t21.5 20.5t28 14.5q49 8 106 10t107 6q59 6 113.5 32t100.5 65.5t79.5 90t52.5 105.5q8 27 12 59.5t12 62.5t25.5 49.5t54.5 19.5t56.5 -17.5t28.5 -43t11 -56.5t2 -57q0 -82 -11 -160t-34 -156v-16 q39 0 82 4t84 1t79 -16.5t67 -48.5q16 -20 26.5 -44.5t10.5 -53.5q0 -41 -15.5 -73.5t-44.5 -61.5v-82q0 -29 -25.5 -57.5t-50.5 -40.5q-2 -29 -6 -62t-13 -63.5t-27.5 -55t-51.5 -36.5q-16 -8 -43 -9.5t-39 -23.5q-4 -8 -11 -26.5t-15 -26.5q-82 -90 -169 -121t-206 -31 q-61 0 -124 13.5t-116 45.5q-37 20 -66.5 45t-74.5 25h-27q-12 -4 -20 -17.5t-13.5 -27.5t-8.5 -25.5t-7 -11.5h-131z" />
<glyph unicode="/" horiz-adv-x="1671" d="M37 784q0 268 164 512q145 215 387 295q152 49 291 49q248 0 448.5 -150.5t280.5 -387.5q31 -88 30 -184q0 -123 -49 -263q-4 -12 -114 -219l114 -94q12 -18 13 -37q0 -29 -31 -53q-18 -16 -520 -234q-37 -16 -64 21q-14 20 82 586q4 20 25.5 37.5t42.5 17.5 q12 0 135 -84q94 137 80 289q-10 121 -80 221q-135 188 -346 242q-63 16 -123 16q-162 0 -303 -117q-51 -43 -103 -131q-80 -137 -80 -287q0 -141 70 -280q72 -147 188 -217q76 -47 93 -70q10 -14 18 -39q6 -16 -5 -69.5t-24 -63.5l-69 -55q-8 -8 -45 -12t-54 2 q-133 57 -235 174q-20 20 -53 67q-164 233 -164 518z" />
<glyph unicode="0" horiz-adv-x="3223" d="M33 27v1417q0 12 18.5 14t26.5 2h26l3081 -569q14 0 16 -10.5t2 -16.5t-2 -16t-16 -10z" />
<glyph unicode="1" horiz-adv-x="1728" d="M45 782q0 162 80 348q94 223 262 357q203 164 479 164q338 0 586 -269q236 -256 236 -575q0 -340 -236 -590q-242 -256 -586 -256q-317 0 -563 238q-258 246 -258 583zM45 782q0 162 80 348q94 223 262 357q203 164 479 164q338 0 586 -269q236 -256 236 -575 q0 -340 -236 -590q-242 -256 -586 -256q-317 0 -563 238q-258 246 -258 583zM143 782q0 -297 226 -514q219 -209 497 -209q301 0 513 222.5t212 525.5q0 283 -211 510q-219 237 -514 237q-348 0 -557 -290q-166 -231 -166 -482zM705 827q0 -74 12 -98q31 -61 139 -76 q68 -8 127 60q49 57 49 104q0 55 -37 101q-47 59 -139 59q-152 -4 -151 -150z" />
<glyph unicode="2" horiz-adv-x="2969" d="M31 1036q311 360 717 541q360 158 747 158q369 0 733 -152q414 -172 713 -502q-16 -23 -8 -45l-615 -426l-170 252l377 258q-53 55 -276 187q-20 -29 -88 -142q-53 -86 -62 -86q-18 0 -18 -6l-199 125v21l111 174q-72 57 -348 84v-533h-308v533q-250 -37 -391 -97 l111 -182l-219 -145l-136 221q-66 -39 -129 -78q-80 -49 -127 -94l351 -266l-185 -244zM952 1004q0 10 31 22q203 -215 408 -430q315 -342 315 -381q0 -55 -107 -125q-96 -63 -139 -63q-49 0 -63 28q-94 182 -226 469q-203 444 -219 480z" />
<glyph unicode="3" horiz-adv-x="3426" d="M37 1143q59 35 194.5 139t204.5 145q115 68 203 68q102 0 224 -93t243 -93q84 0 496.5 75.5t619.5 75.5q258 0 567 -84q322 -86 596 -233l-1398 14l-164 -41q6 0 10 4q0 8 -170 8q-113 0 -446 -405l-558 -700h-342l1024 1120h-1304zM1616 762h201q12 43 12 -359h-203z M1616 868l180 -4l-4 176l-174 2zM1618 281h246l10 -244l-252 -2zM1823 1120l155 45l1033 -1106l-345 -32z" />
<glyph unicode="4" horiz-adv-x="643" d="M45 1360q0 119 115 219l153 8q121 -31 156 -86q23 -37 23 -141q0 -111 -80 -162q-14 -8 -121 -45q-246 6 -246 207zM49 33l4 49q78 0 78 6q0 4 -4 8v801h-72l-4 41h438v-856h107v-49h-547z" />
<glyph unicode="5" horiz-adv-x="2494" d="M0 266v908q0 35 22.5 78.5t56.5 82.5t75 65.5t77 26.5h2016q37 0 78.5 -26.5t75.5 -65.5t56.5 -83t22.5 -78v-908q0 -53 -27.5 -101t-71.5 -85t-97.5 -58.5t-102.5 -21.5h-1882q-4 0 -29 4t-39 8q-39 8 -79.5 33t-74.5 60.5t-55.5 77.5t-21.5 83zM143 266q0 -37 33 -67.5 t68 -42.5q4 -4 10 -5t10 -4l12 -4h1938q23 0 46.5 15.5t42.5 39t31.5 51t12.5 50.5v842q0 23 -12.5 49.5t-31.5 50t-43 38.5t-46 15h-1948q-16 0 -37.5 -12t-40 -30.5t-32 -40t-13.5 -37.5v-908zM231 719q0 80 46.5 124t121.5 44q70 0 118 -45t48 -117q0 -74 -44 -128 t-122 -54q-76 0 -122 53t-46 123zM299 715q0 -41 26.5 -67.5t67.5 -26.5q47 0 76 24.5t29 73.5q0 39 -29 69.5t-70 30.5q-47 0 -73.5 -31.5t-26.5 -72.5zM709 244v940q0 16 10 29.5t24.5 21.5t31 12t28.5 4q33 0 63.5 -27.5t30.5 -60.5v-887q0 -45 -31.5 -66.5t-68.5 -21.5 q-25 0 -56.5 9.5t-31.5 46.5zM774 276l23 -22h6q4 0 10 1t6 11v897q0 8 -9 9.5t-13 1.5q-12 0 -17.5 -3.5t-5.5 -19.5v-875zM1124 569q4 18 20.5 53t39 77t47 86t43.5 79h49v-233q29 12 42 1t13 -34t-13 -34t-42 1v-78h-55v82h-144zM1180 631h82v133zM1450 627h84v225h111 v-225h71q-4 -4 -13 -16.5t-20.5 -27t-20.5 -25.5t-13 -15l-56 -56h-10zM1948 254v920q0 16 10 30.5t25.5 24.5t33 16t31.5 6q10 0 25.5 -6t29 -15t23.5 -21.5t10 -24.5v-940q0 -16 -10 -27.5t-23.5 -17.5t-29 -8.5t-25.5 -2.5q-12 0 -29.5 4.5t-33 12.5t-26.5 20.5t-11 28.5 zM2025 266q0 -10 6.5 -11t10.5 -1h6l23 22v875q0 16 -5.5 19.5t-17.5 3.5q-4 0 -13.5 -1.5t-9.5 -9.5v-897z" />
<glyph unicode="6" horiz-adv-x="4464" d="M98 829q0 256 101 484q127 287 350 286h3369q229 0 358 -276q105 -224 105 -500q0 -250 -105 -485q-129 -291 -340 -291h-3406q-104 0 -246.5 166t-164.5 322q-20 147 -21 294z" />
<glyph unicode="7" horiz-adv-x="1441" d="M0 16v88l33 33q2 2 39 25.5t87 54.5t102 63.5t87 53.5q4 4 22.5 10t22.5 10l10 -10q4 -8 7.5 -32.5t3.5 -32.5h12l109 65h4q12 0 16 -10v-45q0 -10 1 -30.5t-11 -33.5q-10 -6 -38 -23.5t-59.5 -37t-60.5 -36.5t-39 -24q-2 -2 -12 -8q-4 -2 -8 -2t-17 -4q-6 -2 -12 -2v82 q-4 0 -13.5 -5t-13.5 -5q-14 -8 -50 -31t-76 -47.5t-74.5 -46t-48.5 -29.5h-7q-4 0 -10 1t-6 9zM0 338v115l393 241l4 -4q6 -6 6 -8q4 -8 7.5 -38t3.5 -38q6 4 21.5 13.5t32.5 19.5t32.5 19.5t21.5 13.5q2 2 6 4t9 4q4 2 8 2q10 0 10 -10v-99l-10 -10q-43 -27 -82 -51 q-35 -23 -69 -44.5t-56 -35.5q-4 -4 -7 -5t-7 -3l-9 -4q-4 2 -6 4q-4 4 -4 8q-4 8 -7 31.5t-3 34.5h-6q-39 0 -74 -24.5t-68.5 -55.5t-69.5 -55.5t-77 -24.5zM0 987v115q20 0 43 -17q14 -8 50 -29.5t76 -46t76 -46t50 -29.5q0 8 3 37.5t7 38.5q0 4 4 8q2 2 6 2t9 -2 q4 -2 7 -4t7 -4q23 -16 56.5 -37t68.5 -43q39 -25 82 -51l10 -11v-98q0 -12 -10 -12l-8 4q-4 2 -8.5 3t-6.5 5q-6 4 -21.5 13.5t-32.5 19.5t-32.5 19t-21.5 14q0 -10 -3 -39t-8 -39l-6 -6l-4 -4zM0 1337v86q0 10 6 11.5t10 1.5h7q14 -8 48.5 -31t74.5 -47.5t76 -46t50 -29.5 q4 0 13.5 -5t13.5 -5v82l12 -4q6 -2 17 -2l8 -5q4 -2 7 -3t5 -3q10 -6 39 -23.5t60.5 -37t59.5 -36.5t38 -23q12 -12 11 -33t-1 -33v-43q-4 -10 -16 -10h-4l-109 63h-12q0 -8 -3 -31.5t-8 -31.5l-10 -13q-4 4 -22.5 11.5t-22.5 11.5q-35 20 -87 52t-102 63.5t-87 55.5 t-39 26zM643 111v1204h16q25 0 41.5 -5t40.5 -18q16 -10 59.5 -36.5t92.5 -55.5t93 -55.5t61 -36.5q4 0 11 -6t11 -10h371v-732h-361l-22 -16q-43 -18 -94.5 -56t-106.5 -77t-109.5 -68.5t-103.5 -31.5z" />
<glyph unicode="8" horiz-adv-x="1480" d="M31 731q0 150 58 281t158.5 227t233.5 151.5t281 55.5q152 0 280.5 -59.5t222 -161t145.5 -234.5t52 -278q0 -152 -59.5 -279t-160.5 -220t-233 -145.5t-280 -52.5q-145 0 -272 57.5t-221.5 156t-149.5 227.5t-55 274zM78 754h102v-52h-98q-6 4 -3 -33.5t12 -87 t23.5 -93.5t30.5 -52h9l77 35h7q10 0 16 -8t6 -17q0 -8 -13.5 -13t-29.5 -11t-29.5 -14.5t-13.5 -20.5q0 -18 26.5 -53t61.5 -71t72 -63.5t57 -33.5q12 0 18.5 12t11.5 26.5t11 27t19 12.5q10 0 19 -4t9 -15v-2l-43 -80v-2q-4 -16 34 -30.5t87 -26.5t98.5 -18.5t69.5 -6.5 v107h49v-111q12 -2 61.5 8.5t102.5 24.5t92 28.5t33 20.5l-49 92q8 6 17 12.5t18 10.5q2 -6 10 -17.5t15 -25.5t14.5 -25.5t11.5 -17.5l6 -8q20 16 55 43.5t71 59.5t62.5 64.5t32.5 61.5q-2 12 -17.5 19.5t-31.5 13.5t-28.5 12t-8.5 14v5q4 4 7 14t7 14l93 -43q8 -4 21 33 t23.5 85t18.5 92t8 56h-106v52h110q2 -2 -2 30.5t-12 76.5t-21.5 89t-31.5 70h-8l-93 -43q-4 4 -7 14t-7 15v4q0 12 13.5 18t29.5 12.5t29.5 12.5t13.5 16q-2 10 -26.5 43t-56.5 67.5t-64.5 65.5t-53.5 37l-6 -6q-4 -2 -5 -4t-3 -2q-4 -10 -20.5 -34t-20.5 -32h-8 q-8 0 -18.5 5t-10.5 14q0 25 21.5 43t21.5 43q-25 29 -74 47t-99 28.5t-88 12.5t-42 0v-101h-49v101q-80 0 -160 -21.5t-149 -64.5q8 -23 23.5 -45.5t25.5 -38.5v-4q0 -8 -9.5 -13.5t-19.5 -5.5q-12 0 -20 12.5t-14.5 26.5t-12.5 26.5t-16 12.5q-33 -12 -66 -42t-60.5 -62.5 t-47 -61.5t-25.5 -39v-4q0 -12 13.5 -19t29.5 -13.5t29.5 -12.5t13.5 -18q0 -10 -6 -18.5t-16 -8.5h-7l-77 37h-4q-20 0 -34 -38t-22 -86t-12 -91t-4 -51zM729 727v414h45v-387h289v-47h-313q0 20 -21 20z" />
<glyph unicode="9" horiz-adv-x="3532" d="M27 23v1433h3475v-1433h-3475zM117 1364l4 -1249h817v358h47v-358h406v157h47v-157h405v358h45v-358h842v358h63v-358h404v172h61v-168l150 -4l4 1241h-162l-6 -211h-47v213h-174l-4 -416h-56l3 416h-166l-4 -211l-50 -2l-4 213l-176 2l6 -418h-59l-4 416h-164l-4 -213 h-47v211h-174l2 -414h-62v416h-172v-213l-51 -2l-4 215h-168l6 -416h-63l-2 416h-166l-2 -213h-47v215h-172v-418h-62l2 416l-174 2v-215h-47l-4 215l-164 4l-2 -422h-63l4 416h-177v-213h-45l2 219l-186 2l-4 -424h-47v418zM365 436v23q0 20 6 26h23.5t39.5 15 q20 14 31.5 36.5t11.5 24.5q6 0 16.5 -1t16.5 -1v-412h-55v287zM2154 147q-4 63 27 100.5t71 63t77 49t43 60.5q0 16 -6.5 41.5t-16.5 38.5q-6 0 -25.5 3t-25.5 3q-43 -6 -55.5 -24.5t-18.5 -39t-16 -36t-45 -11.5q0 59 32.5 107.5t98.5 48.5t99.5 -31t33.5 -100 q-4 -45 -37 -76t-69.5 -53.5t-66.5 -43t-30 -46.5h203v-54h-273z" />
<glyph unicode="=" horiz-adv-x="1349" d="M33 379v1300h1280v-1300h-1280zM35 127q0 39 22 82q31 55 80 55h82v-39h-78q-33 0 -51 -39q-14 -29 -14 -57q0 -57 51 -57q6 0 22.5 2t22.5 4q4 -2 14 -8v-39l-6 4q-8 0 -27.5 -2t-23.5 -2q-94 0 -94 96zM215 68q0 43 56.5 53t60.5 29q-12 16 -29 16q-39 0 -39 -27h-26 q0 23 23.5 38.5t47.5 15.5q49 0 49 -41q0 -4 -7 -39t-9 -52q4 -2 10 -6q0 -12 6 -24h-30q-6 4 -17 18q-8 -2 -27.5 -10t-25.5 -8q-43 0 -43 37zM246 63l6 -6h27q36 0 40 49q-25 -2 -73 -22v-21zM354 684h658v113h-658v-113zM354 948q0 -41 32 -66.5t71 -25.5q43 0 71 35 q4 -8 2 -31h66v252h-111v-53q25 2 41 -4v-99q0 -33 -53 -32q-51 0 -51 32v285q0 10 21.5 21.5t31.5 11.5q55 0 51 -88h72v59q0 29 -42 62.5t-81 33.5h-14q-10 0 -15 -2q-14 0 -53 -34.5t-39 -55.5v-301zM369 37l30 151h27q0 -10 2 -14q23 14 43 14q25 0 30 -2.5t15 -27.5 l-22 -121h-31l22 104q-4 25 -22 25q-41 0 -51 -53q-6 -39 -15 -76h-28zM520 68q0 43 57.5 53t61.5 29q-12 16 -31 16q-39 0 -39 -27h-24q-2 23 22.5 38.5t48.5 15.5q50 0 50 -41q0 -4 -8.5 -39t-8.5 -52q2 -2 10 -6q0 -6 5 -24h-29q-6 4 -19 18q-8 -2 -27.5 -10t-25.5 -8 q-43 0 -43 37zM553 63l6 -6h27q35 0 41 49q-27 -2 -74 -22v-21zM678 84q0 37 26.5 73t61.5 36l31 -13l18 62h25l-45 -207h-21l-8 10q-27 -14 -33 -14q-55 0 -55 53zM682 860h63v330q4 4 11 4l63 -334h58l55 334v-334h72v473h-109l-47 -329q-10 8 -8 8l-54 321h-104v-473z M711 88q0 -31 26 -31q49 0 49 68q0 41 -26 41q-49 0 -49 -78zM827 68q0 43 56.5 53t60.5 29q-12 16 -29 16q-39 0 -38 -27h-27q0 23 23.5 38.5t48.5 15.5q49 0 49 -41q0 -4 -7.5 -39t-9.5 -52q4 -2 11 -6q0 -6 6 -24h-29q-8 4 -18 18q-8 -2 -27.5 -10t-26.5 -8q-43 0 -43 37 zM860 63l4 -6h29q35 0 39 49q-25 -2 -72 -22v-21zM1004 123q0 8 18 24q-8 10 -18 31q10 8 10 15l45 -5v19q4 0 14 8l33 -22v86q12 0 16 4q4 -6 15 -19l26 45q6 -4 15 0q4 -12 14 -35l12 9q4 -4 15 -4v-86l34 22q14 -12 11 -22q18 -6 49 0q0 -29 -8 -39q8 -7 18 -23 q-29 -23 -84 -63q-2 -27 -12 -37q-27 8 -43 8q-6 0 -9.5 -4t-9.5 -4q-2 0 -20 8l-51 -8q-2 10 -11 28q-20 25 -79 64z" />
<glyph unicode="&#x3e;" horiz-adv-x="1544" d="M8 125v2q2 4 12.5 15.5t16.5 15.5q12 10 44 38.5t68.5 59.5t68.5 59.5t44 38.5v758q-6 20 -36.5 48t-69.5 57.5t-79 61.5t-63 60q6 18 20.5 35t31.5 31q14 -14 54 -48t85 -73t84 -72.5t55 -48.5q2 -4 7 -6t9 -6l13 -8h336l467 284l14 7q4 -25 26.5 -32t43.5 -5v-174 l200 168q2 6 19 6q4 0 12 -8.5t17.5 -18.5t16.5 -19.5t7 -11.5q-23 -39 -66 -75.5t-86 -68.5t-77.5 -56.5t-40.5 -40.5v-738q-2 -29 27.5 -52t72.5 -50t88 -58.5t76 -78.5v-8q-6 -10 -15 -19q-6 -8 -12 -14l-10 -10l-14 -15q-6 2 -11 6q-6 2 -12 9q-10 8 -34.5 29.5 t-52.5 46t-53.5 47t-33.5 30.5l-18 6v-196q-35 2 -42.5 -2t-7.5 -10.5t-1 -11.5t-23 -5q-6 0 -9 2t-10 4l-467 322h-321l-320 -277q-14 10 -32.5 29.5t-18.5 40.5zM358 442l15 7q2 2 33.5 29.5t75.5 66.5t90 79t77 66q6 4 22.5 21.5t22.5 21.5l-22 23q-35 29 -87.5 76 t-101.5 90q-57 51 -118 104h-7v-584zM489 424h240l14 -12l418 -287v201l-391 346zM489 1044q4 -6 17.5 -21t19.5 -19q25 -25 66 -61t80 -71q45 -39 94 -79l395 337v187l-438 -273h-234zM846 727q4 -6 18.5 -20.5t18.5 -16.5q14 -14 54 -48t85 -73t84 -72.5t55 -47.5v555h-8 q-55 -49 -109 -95q-45 -39 -92 -78.5t-75 -68.5q-6 -2 -16.5 -13.5t-14.5 -15.5v-4v-2z" />
<glyph unicode="?" horiz-adv-x="1568" d="M4 49v1340q23 -8 38 7t5 38h1469q-8 -27 -3 -33t15 -6h20.5t10.5 -13v-1333q-23 8 -38.5 -7t-4.5 -38h-1469q10 23 -5 38t-38 7zM92 92h1370v1245h-1370v-1245zM129 344v80h1305v-80h-1305zM129 674v90h1305v-90h-1305zM129 1014v80h1305v-80h-1305z" />
<glyph unicode="A" horiz-adv-x="1730" d="M16 434q4 8 21 8l100 -2q6 0 8 15q0 8 -2 26v287h260v-330h93q45 4 32 4q2 0 5.5 -3t7.5 -3q-10 -8 -13 -20q-2 -2 -12 -7.5t-10 -8.5t-7 -9t-10 -8q-4 -8 -14 -23h-6q-25 -25 -72 -86q-10 -6 -26 -20q-8 -16 -47 -55q-10 -20 -43 -49q-6 -2 -13 -3zM61 1087q0 4 2 19v20 q2 2 7 4q0 20 4 33q12 23 26 49q2 2 6 11q31 31 170 172q25 23 89 88q51 51 110 106q37 27 62 27q2 0 6 -4l6 6l4 -4q4 0 8 4l4 -4q4 4 6 4l7 -4l6 4l6 -4l4 4q2 -2 6 -8l6 8l6 -4h4q0 2 2 2q4 0 4.5 -3t2.5 -3t8 3t10 3q2 0 3 -3t3 -3l6 6l4 -6q4 6 7 6q4 0 4 -3t4 -3 q2 0 0 4q0 2 4 2q2 0 3 -3t3 -3t3 3t3 3q4 0 4 -3t2 -3t2 3t4 3q2 0 3.5 -3t3.5 -3t3 3t3 3t2 -3t2 -3q4 0 4 3t2 3q4 0 4 -3t4 -3l4 6l8 -6l5 6l6 -6l6 6q2 -2 6 -8l6 8q4 -6 6 -6t2 2t2 2q4 0 4 -3t5 -3l4 4l6 -4q4 6 6 6q4 0 4 -3t2 -3t2 3t4 3q2 0 2 -3t4 -3 q-10 0 8.5 3t32.5 3q4 0 4 -3t2 -3l5 4h34q2 2 5 2q2 0 8 -3t8 -3q4 0 5 3t3 3h23l8 -6l18 6l4 -6l6 6q4 0 9 -6l4 6q4 -4 8 -6l6 6l6 -6l4 4l9 -4q0 2 4 2t4 -2t2 -2q4 0 4 2t2 2t3 -2t3 -2q4 0 4 2t2 2t3 -2t3 -2t6 4l7 -4l6 4q2 0 3 -2t3 -2t3 2t3 2q4 0 4 -2t4 -2v4h17 q2 0 3 -2t3 -2q4 0 4 2q-2 2 0 2q4 0 4 -2t4 -2q2 0 3 2t3 2t2 -2t4 -2q2 0 2 2t5 2l8 -6h20q10 -6 8 -7q4 0 4 2l-2 -2q10 -6 31 -16q0 -2 2 -4q14 -4 49 -51q2 -6 11 -15q0 -10 10 -22q0 -14 10 -33v-403q-8 -6 -9 -20.5t-3 -16.5q-14 -14 -15 -35q-10 -10 -20 -23 q-4 -4 -45 -34v-6h-6q-4 0 -17 -3l-8 -8h-18q-2 -4 -8 -8l-5 4q-10 0 -24 -6q-6 -41 -23 -72q-27 -27 -45 -61q-4 -6 -16 -19q-6 -2 -12 -2h-113l-4 9q0 -4 33 39q2 4 10 10q-2 2 -2 4l61 90q-4 10 -8 10l-8 -2q-10 -2 -35 -2l-63 2q-10 0 -13 -4l-2 -16q2 -8 2 -11 q-2 -2 -39 -65q-10 -18 -47 -62h-123q-4 2 -10 7l4 6q20 6 25 30l2 -4l78 119h-105l-6 4q-2 0 -6 -24q-2 -4 -8 -13v-14q-8 -16 -27 -45q-8 -4 -20 -27l-6 -6q-8 -31 -41 -30h-111l104 147v12h-356l-8 4q-10 4 -29 7q0 6 -37 16q-35 35 -53 55q-6 23 -18 45q2 6 2 4 q-2 12 -11 33q-2 -8 -2 16zM190 1092q0 -6 7 -21q0 -4 4 -8q2 -16 37 -27l254 2l6 -4q4 4 6 4t3 -2t5 -2q2 0 8 2t8 2l11 -4q2 10 2 19l-17 16q-2 18 -12 25q0 6 -2 14q-2 0 -2 4l-4 8v86q0 2 -4 0q-4 4 -8 4q-2 0 -8.5 -2t-8.5 -2q-12 0 -16 4v13q8 12 18 28q0 12 19 39v10 q8 14 18 37v9q4 4 8 16q10 23 29 55l-2 10q2 0 8 5.5t8 5.5q8 0 12.5 -13.5t8.5 -15.5v-8q10 -10 20 -53h4l56 -131q0 -10 -17 -11q-4 0 -12 2h-14q-8 0 -13 -8v-41q0 -14 6 -29l5 -4q14 -29 34 -84q4 -8 11 -8q4 0 14 2h14q37 0 51 -2l7 -4q4 0 4 2q-2 2 0 2h2q0 -2 2 -2 l6 8q-6 10 -18 25q-8 27 -21 61v80h-37q-4 0 -10 6q6 10 12 31v6l8 2q0 4 27 54q6 16 21 49v8q8 8 8 18l30 56q6 0 13 -4q2 -12 12 -39q2 0 6 -4q2 -10 10 -25q-2 -4 0 -8q2 -2 9 -10q0 -18 14 -31q0 -2 8 -29q4 -6 9 -18.5t14 -24.5q2 -2 2 -16q8 -16 8 -13q0 -10 -17 -10 h-38q2 -14 -2 -26l20 -84l6 2q4 0 2 -2q-2 -8 17 -35l4 -12q2 -14 10 -15l68 2l45 -6q2 4 2 10q-10 12 -25 31q2 6 -5 19.5t-7 17.5q-6 0 -6 4q0 -6 2 4q-2 14 -4 10q4 4 2 6q-2 4 -2 13v47q0 4 4 8l-6 6h-35q-10 0 -11 10v7q25 10 21 32q4 2 8 7q2 29 4 22q6 8 17 23 q-2 6 16 34q0 8 10 23q2 16 10 33q4 2 9 8q4 33 18 33l72 -148q0 -4 2 -14q2 -2 4 -6q4 -18 20 -39q2 -14 2 -12q0 -8 -4 -15h-51v-63h2q2 2 4 2q2 -4 4 -27l19 -31q10 -20 8 -26q6 2 4 2q4 -2 4 -17q25 -12 19 -12h10q20 0 43 29v377q0 29 -41 47l-6 -4l-6 4q-2 0 -7 -4 l-6 4q-4 -4 -8 -4q-2 0 -2 2t-2 2q-4 0 -4 -2q2 -2 0 -2q-4 0 -5 2t-3 2t-6 -4l-7 4q-4 -4 -6 -4t-3 2t-3 2h-39q-4 -4 -2 -4q-4 0 -14 2t-16 2l-80 -2l-90 4q-2 0 -3 -2q0 -2 -4 -2q-2 0 -8 2t-10 2q-2 0 -2 -2t-2 -2t-3 2t-5 2q2 0 -4 -4l-7 4q-6 -4 -8 -4h-12q-6 4 -4 4 q-2 0 -2 -2t-4 -2q-2 0 -6 4l-5 -4l-8 4l-6 -4q-2 0 -4 4l-6 -4q-4 4 -6 4t-3 -2t-3 -2t-3 2t-4 2q-4 0 -3 -2t-3 -2q-2 0 -6 4l-4 -4l-6 4q-4 -4 -6 -4q-4 0 -10.5 2t-8.5 2q-4 0 -10 -2t-10 -2q-2 0 -4 2l-2 2q-10 -2 -19 -2q-2 2 -4 0l-47 2q-8 0 -16 -6 q-45 -49 -101 -105q-12 -10 -41 -37q-76 -72 -206 -213q-4 -12 -5 -32zM414 106q0 6 2 9q6 16 14 32l19 29l34 47q2 0 4 -2l15 29v4q0 -2 4 -2q12 27 29 37q2 4 0 8q10 10 24 29q2 8 10 20q8 4 21 29q27 27 24 35q4 0 9 4q10 14 28 45q6 6 25 26q2 4 4 11q10 18 35 45l24 18 q10 0 23 8h67q2 -4 7 -8q66 -10 49 -10h2q0 2 4 2q2 -2 9 -6t56 -15q2 -4 9 -8q8 2 22 0q16 -10 21 -10l6 2l43 -18h22q8 -8 29 -11q10 -4 22.5 -7t16.5 -3v-2q31 -12 43 -12q43 0 51 49q6 6 6 18q4 0 6 4l4 9q18 37 17.5 40t7.5 7q0 6 2 12q20 14 27 53q10 16 32 47 q-2 0 -2 5q6 12 23 34q2 6 0 11q4 8 22 38q2 2 0 3q0 2 3 0q6 10 12 30q4 8 18 29q25 33 31 33q4 0 2 -2h4q0 2 12 10q12 0 25 10q4 0 4 -2q-2 -2 0 -2q4 0 13.5 5t11.5 5q4 0 4 -2t2 -2q-2 0 4 2q-4 2 31 2q0 -10 8 -10q2 0 8 2t8 2q-12 0 19.5 -13.5t35 -15.5t25.5 -28 q0 -6 10 -21q2 -8 9 -20l-3 -6q1 -18 13 -43q-4 -2 -8 -9v-40l-84 -160h-5q-14 -20 -20 -49q-8 -2 -10 -17q-4 -4 -19 -35q-4 -10 -16 -30q-6 -10 -27 -49q2 -4 0 -9q-14 -25 -39 -71q-25 -33 -22 -37q-4 0 -6 2q-8 -2 -8 -10q-6 -2 -16.5 -10.5t-21 -8.5t-18.5 -10 q-4 0 -12 -2h-10q-23 0 -27 -2q-2 -2 -2 0q-4 4 -6 4h-33q-4 0 -26.5 8t-26.5 8h-4q0 -2 -2 -2t-19.5 8.5t-21.5 8.5q-2 0 -2 -4q-10 10 -29 10q-6 4 -33 8q-37 12 -24 12q-2 0 -3 -2t-3 -2q0 2 -11 8q-4 0 -20 2q0 4 -4 9q-12 -2 -27 6l-6 -4q0 4 -4 6q-12 2 -35 12l-78 19 q-23 10 -28 10q-2 0 -2 -2h-5q10 0 -7 6t-23 6q-16 0 -25 -6q-14 -18 -47 -55q-2 -10 -10 -17v-12q-6 0 -8 2l-78 -119q-12 0 -17 -16q-12 -10 -18 -27q-4 -4 -12 -10q-2 -2 0 -4q-12 -20 -49 -55l-54 -17l-45 12q-8 8 -28.5 22.5t-16.5 10.5t6 -4h2l-14 25q-14 23 -14 34z M1386 1094v73q0 -4 9 11q4 6 0 12q6 12 18 31q47 51 72 51h2q0 2 2 6q23 6 16 6q4 0 3 -2t3 -2q0 2 7 8q8 -4 6 -4q4 0 4 2t2 2t6 -4l6 4l6 -4q2 2 6 4l7 -8q2 4 6 8l6 -4l8 4q6 -8 29 -10q2 0 2 -2q14 -8 41 -25q8 -8 28 -37q2 -6 9 -10q2 -14 10 -14q0 -25 10 -31v-65 q-8 0 -10 -9v-18q-10 -6 -8 -16q-4 0 -6 2q-10 -33 -13 -29q-6 -6 -20 -18q-12 0 -25 -21q-2 0 -19.5 -7t-29.5 -7q-4 0 -14.5 -2t-14.5 -2t-16 2h-18q-12 0 -48 18q-6 2 -45 37q-8 12 -20 35h-8l6 6q-14 20 -15 29z" />
<glyph unicode="B" horiz-adv-x="2107" d="M4 145v707q0 27 18.5 52.5t46 45t58.5 30.5t55 11h678q2 -2 4 -6q4 -8 4 -12q8 -23 12.5 -49.5t8.5 -49.5h-725q-6 0 -14.5 -8t-15.5 -18t-12 -20.5t-5 -14.5v-639q0 -14 16.5 -28.5t30.5 -18.5q207 -4 361.5 -5t292.5 -2t279.5 -1h321.5h400q53 14 84.5 58t48 100.5 t21.5 115t5 101.5q0 29 -5 91t-20.5 126.5t-45 113.5t-78.5 49h-762v109h799q68 0 112.5 -59.5t72.5 -140.5t39 -161.5t11 -123.5q0 -49 -11 -132t-39 -163t-75 -138.5t-121 -58.5h-1691q-23 0 -50.5 12.5t-52 33t-41 45t-16.5 48.5zM295 250v192v153t10 153q8 4 12.5 7 t12.5 3h4l196 -94v-353l-206 -98h-5q-10 0 -17 14.5t-7 22.5zM700 1161v33q0 59 2.5 115.5t6.5 124.5h34q59 0 115.5 -3.5t124.5 -7.5l-68 -65q57 -104 81 -206.5t24 -219.5q0 -61 -11.5 -132t-34 -139.5t-58 -129t-85.5 -103.5q47 82 76 169t29 183q0 14 -4 53t-13.5 88.5 t-22.5 101.5t-30.5 95t-40 72t-49.5 29h-10zM1207 663q0 6 10 9l206 104q6 3 12 3q11 0 21 -10q14 -15 25.5 -44t20.5 -64.5t14.5 -68.5t8.5 -56.5t3 -27.5q0 -18 -4 -65.5t-15.5 -96.5t-30 -87t-48.5 -38h-7l-196 94q-4 4 -6 9q-4 8 -4 10v4q0 35 5 70.5t5 70.5 q0 43 -9.5 83t-9.5 83z" />
<glyph unicode="C" horiz-adv-x="1802" d="M37 1534q141 168 358 168q92 0 193 -39q127 -49 166 -135l-209 -418h-45q-1 9 -1 17q0 48 29 87q-23 29 -55 29q-10 0 -16 -2q-23 -49 -60 -131h-35q-12 18 -12 29l39 88q-8 27 -39 26q-39 0 -61 -59q-10 -29 -29 -84h-35q-1 7 -1 16q0 32 18 78zM84 1530l22 -27 q33 -55 95 -137v68q0 45 -29 45q8 27 68 98q12 -33 43 -100q-39 2 -43 -29q2 16 2 -49q0 -27 20.5 -64t44.5 -37q20 0 43 27q-2 10 -2 23q0 16 8.5 44.5t8.5 41.5q0 20 -29 22q43 100 57 111q25 -53 45 -121q-5 1 -9 1q-40 0 -40 -65q0 -35 33 -71h65q-4 16 5 51q6 43 6 55 q0 37 -33 41q27 39 72 111q10 -23 41 -123h-4q-37 0 -37 -70q0 -43 36 -65l121 219l-139 94q-60 33 -147 33h-19q-86 -2 -162 -39q-25 -12 -143 -88zM293 682q4 -2 18 0q23 2 45 2q31 4 31 23q0 6 -3 19t-3 22v223h231v-256q42 -29 103 -45l-221 -264zM655 158q0 27 97 227 q86 174 122 240q20 35 101 69l299 -55q14 0 22 2q39 55 84 176t76 168q45 68 123 68q68 0 117 -70q41 -58 41 -109q0 -25 -60 -172q-49 -123 -75 -182q-45 -137 -64 -168q-49 -82 -145 -82l-338 113q-41 -25 -129 -203q-78 -155 -151 -155h-1q-53 0 -86 39.5t-33 93.5z M735 1038v260h238q10 39 41 113l221 -229l-209 -250h-35q0 8 4 51q2 31 -4 55h-256zM1452 1288q0 61 49 119.5t109 58.5q63 0 109 -59t46 -125q0 -53 -48 -113.5t-99 -60.5q-74 0 -120 53t-46 127z" />
<glyph unicode="D" horiz-adv-x="2002" d="M31 563q-6 30 -6 64.5t6 75.5q12 81 45 169.5t84 177.5t119.5 164.5t152.5 130t182 74.5h4q-4 -27 20 -36t44 1q0 -4 5 -9t5 -9q10 -29 24.5 -69t31.5 -78q18 -45 36 -95v-10q-8 -2 -16 -6l-20 -10q-8 -4 -25.5 -11.5t-22.5 -7.5h-4q-10 0 -14 10.5t-8 16.5 q-4 10 -14.5 35.5t-22.5 53.5t-23.5 53.5t-13.5 35.5h-10q-31 0 -82 -28.5t-99.5 -68.5t-84 -83t-35.5 -70q0 -2 2 -4q4 -4 6 -4l166 -90v-10q0 -20 -18.5 -48t-28.5 -40l-193 98q-41 -61 -59.5 -144t-22.5 -157h185v-117h-185q0 -14 4.5 -47t12.5 -74t19 -86t26.5 -80.5 t33 -59.5t37.5 -24h5l403 394q-10 14 -9 30.5t1 32.5q0 57 32.5 96t94.5 39q55 0 97 -38.5t42 -92.5q0 -68 -47 -103.5t-109 -35.5l-477 -457q-4 4 -14 11.5t-14 7.5h-5h-4q-4 0 -18 -9.5t-19 -9.5q-37 6 -66.5 43t-52 91.5t-38 119t-25.5 122.5t-15 106.5t-5 68.5z M829 1241v107h148v-107h-148zM930 1634v8l65 64h4h5q14 -8 33.5 -24.5t37 -33t30.5 -30.5t17 -19l-73 -71q-2 0 -20.5 15.5t-40 34.5t-40 35.5t-18.5 20.5zM948 918v8q0 4 15.5 18t34 30.5t34 29t17.5 12.5h10l69 -68l-106 -102zM1059 1325q0 82 47 160t123 114v160h330 v-160q41 -14 72.5 -46.5t53 -73.5t33 -87t11.5 -85q0 -68 -29 -126.5t-77 -101.5t-109.5 -66.5t-129.5 -23.5q-72 0 -132 27.5t-103 75t-66.5 107.5t-23.5 126zM1151 242v4q12 18 23 35q10 14 20 25t20 11h11l182 -124q12 -8 32.5 20.5t39 68.5t33 77.5t14.5 48.5q0 6 -1 21 t-1 33.5t-1 34t-1 21.5h-197v113h256q-10 -25 -3 -31t19.5 -5t24.5 2t14 -11q8 -37 9.5 -57.5t1.5 -49.5q4 -6 -7.5 -62.5t-38 -126t-66.5 -133t-91 -81.5q-6 0 -19.5 10t-17.5 16l-27 -26l-211 143q-18 8 -18 23zM1178 1317q0 -94 61 -152.5t160 -58.5q92 0 151.5 59.5 t59.5 151.5q0 43 -16.5 82t-45 67.5t-66.5 45t-83 16.5q-98 0 -159.5 -59.5t-61.5 -151.5zM1315 1634h158v37h-158v-37zM1362 766v143h100v-143h-100zM1659 948l70 68h8q2 0 18.5 -12.5t34.5 -29t33.5 -30.5t15.5 -18v-8l-74 -72zM1665 1599q4 4 17.5 18.5t31 31t35.5 33 t35 24.5h4h4l66 -64v-8q0 -4 -18.5 -20.5t-40 -35.5t-41 -34.5t-21.5 -15.5zM1839 1241v107h137v-107h-137z" />
<glyph unicode="E" horiz-adv-x="1980" d="M0 965v106h1102l258 342q8 16 20 17h6l80 -58l-213 -289v-12h736v-106h-416q-16 -109 -66.5 -202t-125 -162t-171 -107.5t-206.5 -38.5q-47 0 -93.5 13t-93.5 13q-6 0 -8 -1t-10 -9l-320 -426q-4 -6 -9 -12t-11 -6h-6l-74 59l313 430q0 4 5 9t5 10v4v4q-109 80 -176 182 t-82 240h-444zM98 569v9l275 151h18q6 -14 15 -27q6 -10 11 -23t9 -22v-8v-8q-12 -8 -48 -28.5t-76 -43t-76 -43t-48 -28.5q-4 -4 -17.5 -8.5t-17.5 -8.5q-2 2 -9 13.5t-15 24.5t-14.5 26.5t-6.5 23.5zM559 961q0 -27 19.5 -85.5t50 -117t68.5 -98.5q30 -32 60 -31q8 0 15 2 l19 18l231 312h-463zM889 588q0 -4 2 -6q4 -4 6 -4q31 -10 58.5 -9t58.5 0q78 0 155.5 29t141 81t102.5 123.5t39 158.5h-293l-262 -357q-2 -2 -6 -10q-2 -4 -2 -6zM958 0v338h99v-338h-99zM1307 410q2 2 12 9t22.5 14t21.5 13.5t13 8.5q2 2 10 6q4 2 9 2q2 0 4 -2 q4 -4 4 -6l160 -277v-4q0 -8 -9.5 -17.5t-22.5 -16.5t-26.5 -11t-21.5 -4h-8q-8 12 -30 48t-46.5 76t-46 75.5t-29.5 50.5q-4 4 -8 17.5t-8 17.5zM1563 626q0 6 5 18q7 15 16 29.5t19.5 26t16.5 11.5h6l266 -160q8 -4 9 -12v-4l-46 -72h-8q-35 12 -82 35.5t-92 47t-77 45.5 q-34 24 -33 35z" />
<glyph unicode="F" horiz-adv-x="1284" d="M0 731q0 131 46 257t130 224.5t198.5 158t254.5 59.5q145 0 264 -63.5t204 -166t131 -234.5t46 -268q0 -131 -47 -256t-131 -222t-200 -156.5t-253 -59.5q-143 0 -262 62.5t-203 166t-131 233.5t-47 265zM96 729q0 -117 38 -230.5t109.5 -204.5t174 -146.5t229.5 -55.5 q119 0 217.5 53.5t168 140.5t107.5 196.5t38 219.5q0 117 -38 232t-108.5 205t-172 146t-230.5 56q-123 0 -221.5 -53t-167 -140t-106.5 -196.5t-38 -222.5zM219 717q0 147 65.5 246.5t198.5 158.5q-10 29 -12 44.5t-2 39.5v17q0 16 6 16h37l264 -86q10 -4 12.5 -12t2.5 -19 v-14q-10 -10 -36 -40t-57.5 -65.5t-63.5 -71.5t-56 -57h-7q-14 0 -23 13.5t-15.5 30t-9.5 32t-3 19.5h-8q-43 0 -71.5 -29t-45 -69t-22.5 -85t-6 -75q0 -57 16 -121t50 -116t83 -86t117 -34t120 30t85.5 77t51 108.5t17.5 122.5q0 53 -14 100.5t-14 96.5q0 29 19.5 51.5 t49.5 22.5q41 0 62.5 -33t31 -77t10.5 -89t1 -72q0 -86 -27 -173t-78 -157.5t-125.5 -115.5t-171.5 -45q-104 0 -185 46t-135.5 119.5t-83 166t-28.5 184.5z" />
<glyph unicode="G" horiz-adv-x="2447" d="M6 260v920q0 37 24.5 80t61.5 79.5t80 62t82 25.5h1937q45 0 89 -27.5t80 -69.5t58.5 -91t22.5 -92v-854q0 -55 -26.5 -107.5t-69.5 -94.5t-97.5 -66.5t-109.5 -24.5h-1829q-4 0 -28.5 3t-36.5 7q-39 8 -81 33t-77 58.5t-57.5 74.5t-22.5 84zM135 303q0 -33 23.5 -74 t52.5 -57q12 -8 36.5 -19.5t28.5 -11.5h1883q20 0 44.5 12.5t46 32t36 42t14.5 42.5v897q0 23 -15.5 46.5t-38 42t-49 30.5t-49.5 12h-1851q-29 0 -57.5 -14t-52 -37.5t-38 -52.5t-14.5 -57v-834zM221 719q0 74 45 121t123 47q66 0 107 -46t41 -112q0 -72 -42 -119t-116 -47 q-70 0 -114 45t-44 111zM287 719q0 -41 32.5 -60.5t65.5 -19.5q41 0 63.5 22.5t22.5 63.5q0 49 -25.5 67.5t-66.5 18.5q-92 0 -92 -92zM698 270v887q0 33 34 49.5t59 16.5t58.5 -16.5t33.5 -49.5v-887q0 -14 -9.5 -27.5t-22.5 -24.5t-27.5 -17t-26.5 -6q-14 0 -31.5 6 t-32 16t-25 23.5t-10.5 29.5zM774 281q0 -8 6 -9.5t11 -1.5q4 0 10 1t6 10v866q0 8 -6 9t-10 1t-10.5 -1t-6.5 -9v-866zM1094 567q0 29 20.5 72t47 84t52 69.5t35.5 28.5h60v-205q23 8 34 -1t11 -25t-11.5 -26.5t-33.5 -0.5v-76h-54v80h-161zM1163 616h86v129 q-12 -8 -26.5 -26.5t-27.5 -37.5t-22.5 -35.5t-9.5 -18.5v-11zM1401 686v16q0 4 14.5 23.5t33.5 42.5t39.5 44.5t33.5 31.5q35 -29 65.5 -71t52.5 -87h-71v-221h-96v221h-72zM1931 248v919q0 16 9.5 27.5t23.5 18t29.5 8.5t25.5 2t24.5 -2t29 -8.5t23.5 -17.5t9 -28v-907 q0 -12 -9 -24.5t-23.5 -21.5t-28.5 -14t-25 -5q-10 0 -25.5 4t-29.5 11t-23.5 16.5t-9.5 21.5zM1997 281q0 -8 9 -9.5t13 -1.5q10 0 15.5 3t5.5 20v844l-21 20l-22 -20v-856z" />
<glyph unicode="H" horiz-adv-x="2447" d="M0 289v868q0 41 22.5 88t59.5 88t81 69t87 28h1931q41 0 85 -24t81 -60.5t60.5 -80.5t23.5 -85v-924q0 -45 -26.5 -90t-66.5 -80t-87 -57.5t-90 -22.5h-1878q-4 0 -26 3t-30 7q-39 10 -78.5 38t-72.5 66t-54.5 82t-21.5 87zM141 276q0 -18 11.5 -38.5t30 -39t39 -33 t38.5 -18.5q8 -4 28.5 -8t24.5 -4h1805q29 0 60.5 11.5t59 32t46 49t18.5 61.5v858q0 23 -13.5 49.5t-35 49t-46 37.5t-46.5 15h-1878q-18 0 -43 -12t-46.5 -31.5t-37 -43t-15.5 -44.5v-891zM217 717q0 78 48 123t126 45q29 0 55.5 -12.5t48 -33t35 -48t13.5 -58.5 q0 -70 -47 -116t-117 -46q-66 0 -114 40t-48 106zM293 727q0 -41 20.5 -66.5t65.5 -25.5q37 0 62.5 22.5t25.5 59.5t-20.5 70.5t-61.5 33.5t-66.5 -23.5t-25.5 -70.5zM705 256v911q0 29 28 42.5t53 13.5q29 0 61 -12.5t32 -53.5v-901q0 -12 -9.5 -22.5t-24 -17.5t-28.5 -11 t-24 -4t-25.5 3t-29 10t-23.5 17.5t-10 24.5zM770 272q12 0 27.5 3.5t15.5 23.5v836l-8 8q-10 10 -12 14h-7q-4 0 -10 -1t-6 -9v-875zM1108 631v49q0 23 18.5 58.5t47 69.5t64.5 58.5t71 24.5v-211q20 8 31.5 -2t11.5 -27q0 -16 -11.5 -25.5t-31.5 -0.5v-76h-56v82h-145z M1161 680h86v129q-23 -29 -48 -61.5t-38 -67.5zM1237 213v195q0 41 36 63.5t73 22.5q14 0 32.5 -5.5t36 -14.5t28.5 -23.5t11 -32.5v-205h-217zM1296 385h99q0 29 -9 37t-34 8t-40.5 -10t-15.5 -35zM1341 271.5q0 -7.5 1 -12.5t4 -3q4 4 4 16.5t-4 16.5q-2 2 -3.5 -4 t-1.5 -13.5zM1341 314q0 -5 5 -5q4 0 4 6.5t-4 6.5q-5 0 -5 -8zM1389 739q4 6 19 29t34.5 49.5t40 52t37.5 37.5q37 -29 73.5 -74t44.5 -94h-69v-213h-99v213h-81zM1921 276v871q0 37 29.5 56.5t62.5 19.5q29 0 60.5 -12.5t31.5 -53.5v-891q0 -29 -30.5 -47t-55.5 -18 q-33 0 -65.5 20.5t-32.5 54.5zM1997 276h33v871q0 8 -6.5 9t-10.5 1t-10 -1t-6 -9v-871z" />
<glyph unicode="I" horiz-adv-x="2447" d="M6 256v924q0 43 27.5 87t68.5 79.5t88.5 59.5t88.5 24h1888q49 0 98 -28t87 -70t62.5 -91t24.5 -94v-858q0 -43 -22.5 -92.5t-58.5 -92.5t-80 -70.5t-89 -27.5h-1933q-6 2 -14 4q-17 4 -19 6q-33 14 -70.5 38t-70.5 54.5t-54.5 67.5t-21.5 80zM137 299q0 -20 8.5 -41.5 t22.5 -41t30.5 -35t34.5 -23.5q12 -4 37 -12.5t29 -8.5h1835q25 0 53.5 12.5t53 32t41 44t16.5 50.5v881q0 23 -15.5 47.5t-38 46t-49 34.5t-49.5 13h-1847q-31 0 -59.5 -16t-52 -42t-37 -56.5t-13.5 -59.5v-825zM223 717q0 74 43 121t125 47q70 0 109 -51.5t39 -116.5 q0 -31 -12.5 -59.5t-34 -50t-48 -35t-57.5 -13.5q-70 0 -117 44t-47 114zM289 723q0 -37 24.5 -62.5t61.5 -25.5q41 0 69.5 23.5t28.5 70.5q0 45 -30.5 62.5t-67.5 17.5q-41 0 -63.5 -22.5t-22.5 -63.5zM700 256v901q0 29 31.5 47.5t56.5 18.5q10 0 24.5 -3t29 -10.5 t23.5 -17.5t9 -25l11 -891q0 -35 -32 -55t-60 -20q-10 0 -25.5 3t-31 9t-26 16.5t-10.5 26.5zM776 276q0 -8 6 -9t11 -1q4 0 10 1t6 9v871h-33v-871zM1098 621q0 29 17.5 73.5t43 86.5t52 73t44.5 31h50v-205q25 -4 36 -11t11 -28q0 -20 -7.5 -27.5t-39.5 0.5v-75h-56v82 h-151zM1157 680h86v119q-23 -20 -46 -57t-40 -62zM1243 201v229q0 16 12.5 26.5t30 16.5t34.5 8t28 2q10 0 27.5 -2t33.5 -8t28.5 -16.5t12.5 -26.5v-229h-207zM1298 375h99q0 29 -10 42t-39 13t-39.5 -13.5t-10.5 -41.5zM1337 256q0 -6 4 -6t4 6t-4 6t-4 -6zM1341 309h11 l-11 13v-13zM1417 668v16h72v201h86v-201h72v-16l-115 -146zM1927 256v911q0 29 31 42.5t51 13.5q10 0 26.5 -3t31 -10.5t24.5 -17.5t10 -25v-911q0 -16 -9 -26.5t-23.5 -16.5t-29 -9t-24.5 -3t-25.5 3t-28.5 9t-23.5 16.5t-10.5 26.5zM1993 276q0 -8 6 -9t10 -1h6l23 23 v846q0 10 -9.5 11t-13.5 1t-13 -1t-9 -11v-859z" />
<glyph unicode="J" horiz-adv-x="2279" d="M33 27v1425h2220v-1425h-2220z" />
<glyph unicode="K" horiz-adv-x="1480" d="M25 41v819q0 8 16 21.5t27 13.5h1132v266q-2 10 -8 33q-20 123 -174 197q-131 63 -262 63q-94 0 -207 -27q-37 -23 -82 -38q-93 -37 -143 -111q-43 -65 -44 -126q0 -9 1 -17h-240q-12 14 -12 30q0 66 39 135q92 166 288 248q168 72 381 72q141 0 310 -43 q119 -31 233 -121q127 -100 154 -209q0 -4 7 -17t7 -20v-1173q0 -6 -17.5 -18.5t-25.5 -12.5h-1337q-8 0 -25.5 13.5t-17.5 21.5zM571 166q0 -14 17 -21h291q16 15 16 25l-78 225v94l37 33q37 33 37 82q0 63 -49 101q-44 30 -107 30h-4q-57 0 -106.5 -33.5t-49.5 -89.5 q0 -61 74 -118v-91z" />
<glyph unicode="L" horiz-adv-x="1110" d="M23 14v1434h61v-1434h-61zM328 23v1441l762 -733l-687 -655q-2 -4 -11 -10.5t-18 -13.5t-18.5 -13t-11.5 -8z" />
<glyph unicode="M" horiz-adv-x="2283" d="M25 25v1359h133q8 10 8 80h51q6 14 6 27q0 16 -8 33q111 29 313 104q131 49 252 49q129 0 209 -35q25 -10 84 -45q51 -30 65 -30h1q8 0 58 31.5t60 35.5q80 33 244 54l559 -154v-51q18 -10 60 -8q10 -23 10 -82q31 -8 63 -9q33 0 68 9v-1368h-2236zM287 246h45 q268 131 448 131q170 0 301 -80v1167l-290 103l-504 -154v-1167zM1204 297q117 74 307 90l498 -141v1177l-508 144q-53 -10 -160 -35q-88 -23 -137 -70v-1165zM1456 1001h238v-464q22 -9 53 -27l-242 14v451q-6 2 -27.5 11t-21.5 15zM1456 1235q0 43 41 87t84 44 q41 0 84 -45t43 -86q0 -49 -40 -86t-91 -37q-47 0 -84 38t-37 85z" />
<glyph unicode="N" horiz-adv-x="1701" d="M33 113q0 61 184 354q176 279 225 321q18 16 62.5 29.5t58.5 22.5l414 -123q55 45 139 186q98 166 139 215q86 104 177 105q78 0 120.5 -56.5t42.5 -136.5q0 -33 -55 -106l-154 -314q-104 -213 -204 -276l-570 182q-57 -20 -223 -268q-158 -236 -221 -236q-37 0 -86 33 t-49 68zM1268 1495q0 74 61.5 152.5t130.5 78.5q111 0 162 -45.5t51 -154.5q0 -92 -45 -154q-48 -69 -136 -69h-3q-68 0 -144.5 62t-76.5 130z" />
<glyph unicode="O" horiz-adv-x="1746" d="M29 709q0 344 252 577q244 225 591 225q348 0 592 -225q252 -233 252 -577q0 -342 -252 -576q-246 -225 -592 -225q-344 0 -591 225q-252 234 -252 576z" />
<glyph unicode="P" horiz-adv-x="3131" d="M39 1130q0 338 199 562q132 149 292 149h2q63 0 119 -18l2128 -715q334 -113 334 -365q0 -113 -66 -297q-51 -145 -141 -264q-123 -164 -256 -164q-37 0 -67 11l-2393 802q-152 51 -151 299z" />
<glyph unicode="Q" horiz-adv-x="1191" d="M-20 -12q14 43 56 147.5t98 239.5t120.5 288.5t125 297t112 264.5t79.5 190l621 -1427h-1212z" />
<glyph unicode="R" horiz-adv-x="1212" d="M-6 1401l1204 -8l-586 -1393q-10 14 -38.5 72.5t-67.5 144.5t-86 193.5t-97.5 223.5t-99.5 231.5t-93 219t-80 185.5t-56 131z" />
<glyph unicode="S" horiz-adv-x="1472" d="M29 795l1390 829v-180l-1063 -651l1063 -607v-180z" />
<glyph unicode="T" horiz-adv-x="1433" d="M29 -10v180l1063 606l-1063 651v181l1390 -830z" />
<glyph unicode="U" horiz-adv-x="1378" d="M4 831q0 127 49 237t133 189.5t196 126t239 46.5q129 0 238.5 -50.5t190 -136.5t127 -199.5t46.5 -238.5q0 -31 -8.5 -61.5t-17.5 -61.5t-17.5 -61.5t-8.5 -59.5v-6l220 -213v-4v-2q0 -4 -8.5 -11.5t-8.5 -11.5t6 -11t11 -11l-293 -291l-248 233q-9 7 -27 7 q-53 0 -106 -14.5t-113 -14.5q-129 0 -238.5 50t-189.5 134t-126 197t-46 239zM76 827q0 -111 41 -209t111.5 -172.5t168 -117.5t211.5 -43q41 0 82 2t80 18q-4 12 -11 14.5t-20 2.5q-33 0 -64.5 -4.5t-66.5 -4.5q-102 0 -192 39t-158 106.5t-106.5 158t-38.5 192.5 q0 109 38.5 202t108.5 162.5t162 108.5t201 39q111 0 201.5 -42t156.5 -112.5t102.5 -164t36.5 -197.5q0 -47 -11 -87t-11 -83q0 -12 8 -14q18 12 26.5 36.5t12.5 53t4 56.5v46q0 113 -42 212t-115.5 173t-172 117t-211.5 43q-109 0 -206 -41t-169.5 -112.5t-114.5 -169 t-42 -208.5zM186 813q0 -90 34 -167t92.5 -135t135 -91t164.5 -33q92 0 171 33t137.5 90t92.5 136t34 171q0 88 -33 167t-89.5 137.5t-134 92t-167.5 33.5q-92 0 -171 -32.5t-138.5 -91t-93.5 -138.5t-34 -172zM338 803v65h534v-65h-534zM836 350q12 -12 42.5 -43 t66.5 -64.5t66.5 -63t43.5 -42.5q4 -4 20.5 -18.5t22.5 -16.5l215 215l-252 238l-23 -23l191 -190q-4 0 -9.5 -9t-5.5 -11q0 -4 7.5 -11.5t7.5 -11.5v-4v-4l-135 -135l-215 200q-6 8 -23 9q-4 0 -12 -1.5t-8 -9.5v-4zM930 416q4 -4 22.5 -23.5t43 -44t50 -49.5t44.5 -37 q6 6 26.5 22.5t24.5 20.5q8 4 8 12v5l-158 149z" />
<glyph unicode="V" horiz-adv-x="1409" d="M4 829q0 98 39 205t107.5 195t164 145.5t207.5 57.5h183q113 0 207 -58.5t163.5 -147.5t108.5 -195.5t39 -205.5q0 -70 -11.5 -134t-40.5 -128l226 -219q-4 -4 -9.5 -11t-5.5 -11v-5v-4q0 -2 5.5 -10t9.5 -10l-291 -285h-4h-4q-4 4 -14.5 11.5t-14.5 9.5l-233 219 q-35 -12 -61.5 -19.5t-50.5 -10.5t-49.5 -4t-58.5 -1q-129 0 -240.5 48t-194.5 131t-130 195.5t-47 241.5zM76 836q0 -117 41 -217.5t114.5 -174t175 -116.5t220.5 -43q35 0 71.5 4t71.5 18q-4 10 -11 12.5t-18 2.5q-31 0 -61.5 -4.5t-63.5 -4.5q-102 0 -193 39 t-159.5 106.5t-109.5 159t-41 193.5q0 106 38.5 199.5t108.5 163t163 108.5t202 39q102 0 193 -39t160 -105.5t108.5 -156.5t39.5 -195q0 -49 -14 -96t-14 -94q0 -14 10 -14h4q23 53 30 103t7 107q0 113 -43 209.5t-115.5 167t-170 110.5t-208.5 40h-84q-94 -18 -177 -65.5 t-144.5 -115t-96 -154.5t-34.5 -187zM186 829q0 -90 33 -170.5t91.5 -141t136 -95.5t169.5 -35q90 0 170 34t139.5 92t94.5 138t35 170q0 92 -35 170t-95.5 135.5t-140 90t-168.5 32.5q-86 0 -163.5 -32.5t-137 -90t-94.5 -133.5t-35 -164zM340 799v73h221v215h74v-215h237 v-73h-237v-252h-74v252h-221zM842 350l260 -252l211 219l-252 238q-8 -6 -11 -9t-3 -14v-6l182 -176v-4v-2q0 -4 -7.5 -11t-7.5 -11t7.5 -11.5t7.5 -11.5v-4v-2l-135 -135l-222 207h-8q-4 0 -13 -1.5t-9 -9.5v-4zM938 410l156 -150l63 62l-147 139l-15 6h-2q-4 0 -10 -6 q-8 -8 -18 -19q-12 -12 -27 -28v-4z" />
<glyph unicode="W" horiz-adv-x="1798" d="M41 694h113v295h268v-297h110l-249 -278zM309 1579q178 166 420 166q240 0 426 -166l-272 -442q-12 10 -35 26l47 92q-6 20 -68 35h-43q0 -18 -8 -59q-20 -31 -55 -94q-4 6 -43 26q55 72 55 101q0 35 -26 34q-86 0 -93 -30q-16 -82 -53 -131l-43 26q14 31 45 92 q4 4 -4 13q-14 -14 -33 -15zM371 1573l168 -252q-29 80 -29 123q0 27 2 33q-18 0 -18 14q0 29 65 123l57 -123q-61 -43 -61 -66q0 -18 19.5 -55t35.5 -41l84 19q-24 24 -24 60q0 13 10 69q-27 -4 -27 16q0 23 27 63.5t47 57.5l51 -121q-61 -25 -61 -72q4 -12 24 -75 q55 0 121 -15q-31 74 -31 119l25 31q-31 -2 -31 14q0 10 29 55q33 53 37 64l49 -123q-53 -33 -53 -74q0 -25 41 -104l166 260q-102 70 -170 94q-82 31 -191 31q-203 0 -362 -125zM471 156q0 27 264 487q10 16 56.5 35.5t68.5 19.5l346 -47q16 0 25 15q29 45 80 178 q47 119 84 166q56 73 143 73h2q72 0 128 -57t56 -129q0 -31 -98 -250q-84 -186 -135 -287q-33 -63 -162 -86l-411 123q-33 -31 -74 -102q-33 -55 -64 -111q-37 -61 -73 -121q-35 -43 -101 -43q-55 0 -95 40t-40 96zM1395 1333q0 74 57 127t131 53q66 0 123 -59t57 -125 q0 -63 -54 -120.5t-118 -57.5q-78 0 -137 52t-59 130z" />
<glyph unicode="X" horiz-adv-x="1460" d="M92 1309q0 145 55 266q82 178 248 178q236 0 490 -260q186 -193 350 -500q182 -342 182 -573q0 -154 -92 -273q-98 -129 -248 -129q-223 0 -479 256q-197 197 -334 453q-172 320 -172 582zM256 1397q0 -18 2 -53.5t2 -53.5q0 -172 170 -471q145 -256 297 -418 q199 -212 357 -212q10 0 20 1q70 6 119 101q45 84 45 160q0 307 -189 585q-125 184 -467 510q-125 84 -200 84q-27 0 -56 -6q-100 -106 -100 -227z" />
<glyph unicode="Y" horiz-adv-x="1712" d="M82 166q0 59 61 143q94 121 279 367q55 74 121 74h10l438 -97q74 129 221 371q49 80 168 80q84 0 142.5 -57.5t58.5 -141.5q0 -66 -70 -178q-29 -43 -98 -160q-51 -94 -162 -266q-55 -74 -159 -74q-53 0 -125 31q-57 27 -117 55q-10 4 -252 111q-66 -90 -252 -342 q-45 -61 -135 -62q-55 0 -92 44.5t-37 101.5zM266 1272v297h352v131l316 -283l-316 -276v131h-352zM1278 1393q0 84 57.5 142t141.5 58q90 0 147 -62.5t57 -152.5q0 -74 -62.5 -131t-137.5 -57q-82 0 -142.5 60.5t-60.5 142.5z" />
<glyph unicode="Z" horiz-adv-x="2359" d="M2 184v1067q0 18 10.5 49t27.5 60t39.5 49.5t47.5 20.5h2103q18 0 40 -15.5t40.5 -37t31.5 -45t13 -40.5v-1140q0 -23 -14 -48.5t-37 -47t-48.5 -36t-45.5 -14.5h-2052q-6 0 -13 2q-4 2 -9 3t-9 5q-47 20 -86 66.5t-39 101.5z" />
<glyph unicode="[" horiz-adv-x="2263" d="M115 688h137v352h313v-354h135l-294 -319zM553 158q0 57 65 143q23 31 105 129q4 4 186 242q61 80 135 73l461 -96q16 25 121 201q80 133 125 186q57 66 160 66q86 0 148.5 -56.5t62.5 -142.5q0 -66 -72 -180q-41 -66 -104 -162q-51 -78 -162 -258q-51 -84 -172 -84 q-61 0 -154 37q-25 12 -145 68q-47 20 -219 94q-72 -96 -265 -346q-47 -61 -143 -62q-70 0 -119 74q-14 20 -14 74zM1806 1395q0 86 60.5 144t146.5 58t150.5 -57t64.5 -141q0 -94 -67.5 -151.5t-163.5 -57.5q-37 0 -66 16q-125 72 -125 189z" />
<glyph unicode="\" horiz-adv-x="2162" d="M29 684h137v346h309v-346h139l-297 -313zM481 164q0 53 74 147l111 135q74 98 194 248q16 18 53 34.5t60 12.5l459 -96q92 160 227 367q51 78 172 78q86 0 147.5 -55.5t61.5 -141.5q0 -55 -12 -78q-45 -78 -324 -508q-53 -82 -172 -82q-63 0 -107 19l-403 176 q-18 -23 -180 -232q-109 -139 -137 -151q-39 -16 -72 -17q-59 0 -105.5 42t-46.5 102zM680 1214v293h358v133l334 -276l-332 -274v124h-360zM1724 1391q0 72 68 127t141 55q86 0 148.5 -55.5t62.5 -141.5q0 -84 -60.5 -142t-144.5 -58q-94 0 -154.5 60t-60.5 155z" />
<glyph unicode="]" horiz-adv-x="1941" d="M20 827v160q0 16 7.5 46t7.5 46q4 33 39 131q53 152 170 275q182 193 387 254q14 8 35 14q156 47 323 47q283 0 537 -166q283 -184 368 -489q35 -123 35 -156v-151q0 -47 -27.5 -140.5t-52.5 -140.5q-10 -18 -39 -74q-66 -123 -209 -239.5t-276 -153.5q-61 -27 -254 -61 l-115 -2q18 0 -100 8q-213 14 -418 143t-307 316q-111 199 -111 333zM309 731h436v-420h469v422h433v410h-435v422h-469v-422h-434v-412zM727 995q4 2 4 15h170l68 178h16l66 -178h190q0 -9 8 -15l-155 -104l59 -166q-4 0 -14 -10l-160 108l-158 -102q-8 8 -16 8l61 168z " />
<glyph unicode="^" horiz-adv-x="1497" d="M2 672v88h219l-86 133q0 2 2 4q0 4 4 4q6 6 30 19.5t30 17.5h2q18 0 29.5 -20.5t21.5 -45t21.5 -45t29.5 -20.5h4q6 8 18.5 28.5t27 45t27.5 50t21 44.5v2v4q-8 12 -16 20l-12 13h-117v88h29l-254 274q29 33 65 58l314 -322h28l-116 219v8q0 6 9 14.5t21.5 14.5t23.5 10 t15 4h4l117 -206l66 127h6q16 0 44.5 -10.5t28.5 -30.5v-2l-69 -140h248l-76 125v6q0 8 10 18.5t22.5 17.5t22.5 12.5t10 3.5l103 -154q6 10 22.5 40t35 62.5t35.5 62t24 40.5q8 10 9 16t13 6q8 0 20.5 -5t24.5 -11t20.5 -12.5t6.5 -8.5l-117 -211h125q0 -4 2 -8q4 -8 4 -14 v-29v-30q-12 -6 -32.5 -8.5t-40 -4.5t-36 -2h-22.5q-6 -4 -6 -10q0 -10 6 -18q10 -20 27.5 -49t33.5 -58q20 -33 41 -70l11 -10l67 127l80 -35l-74 -157h244v-88h-225l74 -113v-4q0 -14 -27 -30.5t-43 -16.5h-4l-80 116h-8q-2 0 -14.5 -20.5t-28 -48t-30.5 -56t-21 -42.5 q14 -29 43.5 -39.5t58.5 -3.5q8 -16 11 -42t3 -38l248 -265l-61 -61l-303 309h-37q0 -29 13 -56.5t32.5 -54t39 -54t31.5 -54.5l-79 -39l-113 201l-64 -125h-6q-16 0 -44.5 10t-28.5 31v4l63 131h-246q0 -4 4 -8t4 -6q4 -6 13.5 -20.5t19.5 -31t19.5 -30.5t13.5 -21v-4 q0 -6 -8 -14t-18.5 -15.5t-22.5 -12.5t-21 -5h-4l-90 139l-129 -227h-4q-2 0 -13.5 4t-23.5 11.5t-21.5 14.5t-9.5 13v8l109 197h-145q-2 14 -5 27q-2 10 -3 20t-1 18v9v6q14 4 36 7t43.5 5t40 3t28.5 1l14 6q-10 20 -24.5 55t-29.5 68t-32.5 57.5t-34.5 24.5h-4l-73 -131 l-76 37l76 164h-234zM360 711q0 -4 2 -6q2 -4 7 -9q18 -35 47.5 -86t58.5 -98q33 -55 68 -115h364q6 0 10.5 14.5t4.5 22.5v8l-445 467l-8 -8q-20 -37 -39 -70q-16 -29 -33.5 -57.5t-27.5 -46.5q-2 -2 -7 -10q-2 -4 -2 -6zM528 989l445 -467q18 14 38.5 37t36 49.5t25.5 53 t10 49.5q0 10 -1 12t-7 10q-20 33 -48 83t-54 97q-31 53 -66 113h-364q-4 -6 -6 -12q-4 -4 -5.5 -9.5t-3.5 -9.5v-2v-4z" />
<glyph unicode="_" horiz-adv-x="3176" d="M0 549v141h596v737h2566v-878h-604q53 -53 89 -115.5t36 -136.5q0 -63 -22.5 -116.5t-60.5 -91.5t-90 -59.5t-114 -21.5q-129 0 -209 78t-80 211q0 78 32 135t95 111h-422q63 -47 95 -114t32 -140q0 -61 -21.5 -112.5t-59 -88.5t-89 -58.5t-112.5 -21.5 q-63 0 -116.5 21.5t-93.5 59.5t-62.5 91.5t-22.5 116.5q0 74 37 136.5t90 115.5h-1489zM1503 289q0 -70 40 -112t114 -42q29 0 57.5 12.5t50 33t34.5 49t13 59.5q0 74 -49 114.5t-112 40.5q-74 0 -111 -42.5t-37 -112.5zM2234 289q0 -63 45 -108.5t109 -45.5q74 0 115 42 t41 112q0 63 -37 109t-111 46q-70 0 -116 -40.5t-46 -114.5z" />
<glyph unicode="`" horiz-adv-x="3340" d="M47 715q0 147 55.5 280t150.5 234.5t224 161t279 59.5h796v-397h-850q-63 -33 -104 -79t-64.5 -95.5t-30.5 -92.5t-3 -69q-2 -47 13 -100.5t48 -101.5t81 -84t114 -46l1419 -2l6 307q20 -14 96 -56t183.5 -100.5t234.5 -127t247 -137t221.5 -130t158.5 -104.5v-19 l-2708 7q-150 37 -260 115.5t-181 177t-102.5 204t-23.5 195.5z" />
<glyph unicode="a" />
<glyph unicode="b" horiz-adv-x="1001" d="M39 244q0 119 125 205v1368h201v-248h608v-146h-606v-215h587v-149h-587v-234h587v-149h-587v-227q122 -67 122 -207q0 -96 -68.5 -156.5t-162.5 -60.5q-84 0 -151.5 67.5t-67.5 151.5z" />
<glyph unicode="c" horiz-adv-x="1445" d="M2 723q0 147 57.5 276t155.5 224.5t228 151t278 55.5q123 0 230.5 -37t205.5 -109q18 25 41 48.5t45 45.5q2 0 11.5 -7t19.5 -16t19.5 -17.5t9.5 -12.5q0 -6 -2.5 -10t-6.5 -8t-13 -15.5t-19.5 -25t-19.5 -24.5t-13 -15v-8q96 -109 150.5 -234t54.5 -270 q0 -143 -56.5 -272.5t-154 -227.5t-226.5 -156.5t-272 -58.5q-27 -4 -52 -4q-47 0 -89 12q-66 18 -120 46t-98 53.5t-79 29.5q-10 0 -22.5 -12t-26 -29.5t-25.5 -34t-20 -24.5h-5q-8 0 -17 6t-19 14t-25 23v4v4v2q0 4 2 6q2 4 4 6q4 6 15.5 19.5t24.5 28t24.5 27.5t15.5 20 v6q-104 111 -157.5 239.5t-53.5 280.5zM47 723q0 -137 50 -264t153 -219q14 8 18 13t4 15q6 0 -17.5 27t-56 82t-63.5 136t-39 187q0 131 48.5 248t132 205t199.5 139t249 51q102 0 193.5 -29.5t173.5 -86.5h8q4 0 14 6t6 16q-6 25 -32.5 44.5t-65.5 34.5t-84 26.5t-88 18.5 t-79 10t-54 3q-135 0 -257 -52t-214 -142t-145.5 -211t-53.5 -258zM147 719q-1 -6 -1 -13q0 -17 4 -43q4 -38 13 -84.5t23.5 -93.5t33 -86t41 -63.5t46.5 -22.5h8l748 863v4q0 33 -45 54t-102.5 34.5t-111.5 18.5t-75 5q-121 0 -226.5 -44t-184 -120.5t-125 -181 t-46.5 -227.5zM322 182q31 -41 80 -65.5t106 -40t113.5 -20.5t99.5 -5q137 0 258 53.5t210 144.5t141 213t52 257q0 59 -11 124.5t-34.5 128t-58.5 117t-84 95.5l-23 -23q82 -100 132.5 -207.5t50.5 -242.5q0 -123 -49.5 -236t-134.5 -196.5t-196.5 -134t-234.5 -50.5 q-111 0 -204 26.5t-185 90.5zM387 250q0 -29 45 -50.5t101.5 -34.5t110.5 -20.5t73 -7.5q119 0 225.5 45t186 124t127 183.5t47.5 225.5q0 31 -10.5 97.5t-30 134t-50 119.5t-73.5 52h-4q-2 -4 -10.5 -11t-10.5 -11l-727 -842v-4z" />
<glyph unicode="d" horiz-adv-x="1316" d="M0 160v16v14q0 4 2 9q2 4 3 7t3 5q0 4 2 6q0 2 2 2q4 4 16.5 15.5t16.5 15.5l4 4q4 4 6 4t11 4q4 2 6 4l340 127l8 4q4 0 8 4l4 5q4 4 4 6t4 6v2q0 2 2 4q0 2 2 4v16v13q0 8 -8 16q-4 4 -8 7t-8 7l-119 93h160q2 0 6 -2q2 -2 4 -3.5t4 -3.5q8 -4 27.5 -15t42 -24.5 t43 -25.5t30.5 -19q4 0 9 -4l4 -4q4 -2 11 -10t11 -12l4 -4q4 -4 5 -9l4 -8v-43q-2 0 -2 -2q-2 -2 -2 -6t-5 -8l-4 -4l-22 -23q-4 -4 -8.5 -8t-8.5 -4q-18 -8 -68 -26.5t-105.5 -39t-105.5 -39t-69 -26.5q-4 0 -10 -4t-10 -4q-2 0 -10 -4q-4 -2 -7 -5l-6 -8l-4 -6 q0 -2 -1 -4t-1 -4q-2 -2 -2 -4v-12v-13q0 -2 2 -4q0 -2 1 -4t1 -4q0 -4 2 -6q0 -2 2 -2l158 -119h-186l-2 2q-2 0 -3.5 1t-3.5 1q-4 0 -10 6t-8 6q-8 4 -25.5 15.5t-37 25t-37 24.5t-23.5 15q-4 4 -16.5 15.5t-16.5 15.5q-2 2 -4 6q-4 8 -4 10q0 4 -2 8.5t-2 8.5zM207 1153 v16v21q0 2 2 4q0 2 1 3t1 3l4 8l4 4q2 2 3 4.5t5 4.5q2 2 6 4l9 4q6 0 10 2q4 0 6 2h64l8 4q2 4 6 10q8 12 10 17q4 4 7 16t7 16q0 4 8.5 17.5t8.5 17.5q4 4 8 12.5t4 12.5t4 8l4 4l23 23l10 10t10 6q4 4 16.5 8t14.5 8q4 2 10 4l15 5q6 0 10 2q4 0 6 2h412q4 0 10 -2 q12 -4 16 -7q12 -4 21.5 -9t19.5 -11q2 -2 3 -4t5 -4q2 -2 7 -4q2 0 8 -6q2 -4 4 -7q4 -4 14 -15t10 -15q2 -6 10.5 -20.5t15.5 -31t14.5 -31t11.5 -20.5l8 -8l8 -4q4 0 11 -2t12 -2q4 0 26.5 -2t26.5 -2q2 0 6 -2q2 -2 4 -3t4 -3l4 -4q6 -6 8 -11q2 -4 5 -6l4 -6v-45 l-21 -19h-63l-4 -8v-4v-8q0 -4 2 -14.5t2 -14.5v-51v-55q0 -6 -2 -20.5t-2 -18.5q-4 -14 -9 -27q-6 -25 -10 -41q0 -2 -1 -4t-1 -4q-2 -2 -2 -4q-4 -4 -10 -17.5t-6 -17.5v-131l-4 -4q-4 -4 -5 -8l-8 -4h-123l-8 4q0 2 -1 4t-1 4v4v123h-452v-127q-2 0 -5 -2q-2 -2 -4 -3 t-4 -3l-6 -6q-2 -2 -4 -2h-113l-14 16v127q-4 4 -10 17.5t-10 17.5q0 4 -4.5 17.5t-8.5 19.5q-2 2 -2 6q-2 4 -2 8q-6 29 -10 56.5t-4 56.5v18q0 4 1 21.5t1 27.5q0 2 2 16.5t2 18.5v12h-59q-4 0 -7 2q-4 2 -8 7l-8 6q-2 2 -3 4t-3 4t-2 4zM393 1169h645q-4 6 -10 21.5 t-13 34t-14.5 34t-9.5 21.5q-4 4 -8 16.5t-8 16.5q0 4 -6 11t-11 11l-4 4q-4 4 -11 10.5t-11 6.5l-25 12h-377q-4 -2 -8 -2q-4 -2 -10 -2l-8 -4q-4 0 -10.5 -4t-10.5 -8q-4 0 -8 -5l-4 -4l-10 -12l-4 -4q-4 -4 -4 -6q0 -4 -4.5 -8t-4.5 -9q-4 -8 -11 -26.5t-14 -39 t-15.5 -38.5t-10.5 -27zM643 152v24v19q0 4 3 12t7 12q4 6 18.5 18.5t18.5 16.5t11.5 8t11.5 4q18 8 63 25.5t96.5 36t95.5 35t62 22.5q4 0 12.5 4t12.5 4l8 4q0 2 2 2t4 2l4 5l4 4q4 4 4 8v2q0 2 2 4q0 2 2 4v16v13q0 8 -8 16q-4 4 -8 7t-6 7l-119 93h158q2 0 6 -2 q8 -4 10 -7q6 -4 26.5 -15t43 -24.5t43 -25.5t29.5 -19q4 0 8 -4l4 -4q4 -2 14 -10t10 -12q4 -4 7.5 -12.5t3.5 -12.5v-14v-21q0 -4 -3.5 -12t-7.5 -12q0 -4 -10 -11.5t-14 -11.5l-4 -4q-4 -4 -8 -4t-8.5 -4t-6.5 -4q-4 -4 -19.5 -8t-21.5 -9q-12 -4 -55 -20t-94 -34.5 t-95.5 -35t-56.5 -20.5q-4 0 -10 -4t-8 -4l-8 -4l-8.5 -8.5t-8.5 -6.5l-4 -8v-16v-17q0 -2 2 -4q0 -2 1 -4t1 -4q0 -4 2 -6q0 -2 2 -2l158 -119h-186l-2 2q-2 0 -3.5 1t-3.5 1t-8 6t-10 6q-10 6 -28.5 18.5t-38 25t-36 22.5t-20.5 14q-4 0 -8 4t-8 9q-10 4 -17 18 q-4 8 -6 14q-2 4 -4 11z" />
<glyph unicode="e" horiz-adv-x="1779" d="M14 100v871q16 18 113 129q66 72 233 260q53 61 107 121q82 86 123 86h1067q33 0 69.5 -28t36.5 -60v-1375q0 -31 -36.5 -60.5t-69.5 -29.5h-1538q-29 0 -67 30t-38 56zM152 535q0 -41 2 -43q6 -12 32.5 -41t34.5 -29h897q20 -20 78 -127q53 -98 64 -98h319q6 2 18 14 v633q-8 14 -26 14h-303q-31 0 -142 -221q-4 0 -4 -4q0 -2 -4 -4h-213q-98 -98 -117 -99q-23 0 -64.5 45.5t-51.5 49.5t-74 4q-70 0 -74 -2q-14 -6 -59 -56q-39 -41 -59 -41t-67.5 49.5t-94.5 49.5q-92 0 -92 -94zM184 977h1456v442q0 25 -38 25h-981q-18 0 -29 -10 q-106 -117 -408 -457zM1196 528l145 258h158q14 -8 31 -24v-494h-180q-14 0 -154 260z" />
<glyph unicode="f" horiz-adv-x="2494" d="M0 303v838q0 45 21.5 95t57.5 93t82 70.5t93 27.5h1984q41 0 84 -26.5t79 -66.5t58.5 -86t22.5 -85v-895q0 -45 -24.5 -92t-62.5 -85t-85 -62.5t-92 -24.5h-1952q-4 0 -20.5 4t-24.5 8q-43 16 -83 44t-70.5 66t-49 83t-18.5 94zM143 268q0 -20 11.5 -38.5t28 -35t36 -29 t35.5 -18.5q4 -4 22.5 -7t22.5 -3h1884q23 0 50.5 11.5t51 30t39 42t15.5 47.5v906q0 18 -14.5 39.5t-34 39t-43 29.5t-41.5 12h-1930q-18 0 -41.5 -12t-43 -31.5t-34 -43t-14.5 -44.5v-895zM231 717q0 70 47.5 120t118.5 50q72 0 124 -48t52 -122q0 -76 -49 -124t-121 -48 q-76 0 -124 48t-48 124zM299 721q0 -49 28.5 -73.5t75.5 -24.5t71 21.5t24 72.5q0 92 -95 92q-37 0 -70.5 -18.5t-33.5 -69.5zM707 258v916q0 35 31.5 50t56.5 15q10 0 27.5 -1t33.5 -7t27.5 -17.5t11.5 -29.5v-936q0 -16 -10.5 -29.5t-24.5 -22t-30.5 -12.5t-28.5 -4 q-29 0 -61.5 22.5t-32.5 55.5zM784 268q0 -8 8.5 -9t12.5 -1q14 0 18 3t4 20v870l-22 23h-4q-4 0 -10.5 -1.5t-6.5 -9.5v-895zM1059 913v19q10 12 27.5 30.5t37 36t40 29.5t38.5 12q25 0 39 -7t29 -36q25 25 44 29t48 4q41 0 67.5 -14.5t49.5 -50.5l98 75h22 q29 0 53.5 -29.5t24.5 -58.5q0 -16 -15 -38.5t-36.5 -43t-46.5 -35t-41 -14.5q-12 0 -31.5 16.5t-27.5 16.5q-4 0 -16.5 -14.5t-16.5 -18.5t-22.5 -16t-22.5 -17v-221q0 -6 8 -12t18.5 -10t20.5 -7t14 -3q20 0 35.5 5t40.5 5h51q4 -4 18.5 -17.5t14.5 -25.5v-133 q0 -12 -14.5 -26.5l-18.5 -18.5h-45q-29 0 -43 11t-39 11t-45 -11t-49 -11t-49.5 11t-44.5 11q-25 0 -40 -13.5t-48 -13.5q-14 0 -23 3q-8 0 -16 2l-33 34v154q0 14 9.5 21.5t21.5 9.5t25.5 2h21.5h41.5t36.5 -23q14 10 26 19q10 8 18.5 15t8.5 11v221l-66 66 q-12 12 -9 17.5t-13 5.5q-14 0 -24.5 -8.5t-20.5 -19.5t-21.5 -19.5t-25.5 -8.5t-29.5 9.5t-28 22.5t-19.5 29.5t-7 30.5zM1137 909h6q4 0 13 4.5t19.5 11.5t18.5 16t8 17v7zM1188 440.5q0 -16.5 1 -30t3 -9.5q4 8 4 38t-4 40q-2 4 -3 -9t-1 -29.5zM1323 440q0 -49 45 -49 q20 0 32.5 13.5t12.5 35.5q0 16 -14.5 32.5t-36.5 16.5q-25 0 -32 -14.5t-7 -34.5zM1323 913q0 -20 7 -34.5t32 -14.5q23 0 37 14.5t14 34.5q0 16 -14.5 34t-30.5 18q-29 0 -37 -14.5t-8 -37.5zM1534 909h4q4 0 14.5 4.5t20.5 11.5t18 16t8 17v7zM1540 440.5q0 -16.5 1 -30 t3 -9.5q4 8 4 38t-4 40q-2 4 -3 -9t-1 -29.5zM1952 248v936q0 16 11 27.5t26.5 17.5t31 8t25.5 2q29 0 61.5 -15.5t32.5 -49.5v-916q0 -33 -32.5 -55.5t-61.5 -22.5q-10 0 -25.5 5t-31 14.5t-26.5 21.5t-11 27zM2030 252q4 0 18 4t14 12v895q0 8 -6 9.5t-10 1.5t-10 -1.5 t-6 -9.5v-911z" />
<glyph unicode="g" horiz-adv-x="2566" d="M0 279v876q0 43 18.5 91t49 88t72.5 66.5t89 26.5h2116q37 0 75 -22.5t69.5 -56t52 -73.5t20.5 -75v-979q0 -31 -21.5 -67.5t-52 -69.5t-66.5 -55.5t-67 -22.5h-2138q-12 4 -22 8q-19 7 -35 15q-35 14 -63.5 41.5t-50 61.5t-34 72t-12.5 75zM47 244q0 -29 12.5 -56.5 t32 -51t43.5 -42.5t47 -31q4 -2 15.5 -6t22.5 -8t20.5 -7t11.5 -3h2058q41 0 80 21.5t69.5 55.5t49 73.5t18.5 78.5v899q0 39 -18.5 79t-49 73t-69.5 54.5t-80 21.5h-2048q-37 0 -74.5 -18.5t-68.5 -48.5t-51.5 -65.5t-20.5 -72.5v-946zM70 244v934q0 25 13 55.5t34.5 59 t48.5 48t51 19.5h2128q37 0 65.5 -23.5t50 -57.5t33 -71t11.5 -65v-852q0 -41 -16.5 -82t-44 -73t-64.5 -52.5t-80 -20.5h-2026q-10 0 -18 3q-8 2 -15.5 3t-11.5 5q-27 8 -54.5 24.5t-51 39t-38.5 50t-15 56.5zM115 233q0 -16 10 -33.5t25.5 -32.5t34 -28.5t32.5 -19.5 q6 -2 23 -6l12 -4h2058q27 0 52.5 13t47 34.5t35 48t13.5 51.5v922q0 20 -13.5 46.5t-33 48t-44 37t-45.5 15.5h-2070q-23 0 -46.5 -13.5t-44 -34t-33.5 -44t-13 -43.5v-957zM137 244v946q0 16 13.5 35.5t33 37t41 29t37.5 11.5h2038q23 0 47.5 -12.5t43.5 -32t31.5 -44 t12.5 -47.5v-899q0 -23 -11 -46t-29.5 -43.5t-41 -34t-43.5 -13.5h-2048l-12 4q-4 2 -10.5 3t-10.5 3q-12 4 -28.5 15.5t-30.5 26t-23.5 30.5t-9.5 31zM182 244q0 -12 21.5 -32t25.5 -24q2 -4 13 -8q4 -2 10 -4h2070q8 0 19.5 7t23 18.5t18.5 23t7 19.5v946q0 10 -9 22.5 t-22.5 22.5t-27 16t-21.5 6h-2048q-8 0 -21.5 -6t-26.5 -16t-22.5 -22.5t-9.5 -22.5v-946zM195 717q0 82 52 129t130 47t130 -50t52 -132q0 -78 -49 -130.5t-127 -52.5t-133 55.5t-55 133.5zM274 711q0 -47 28 -75t75 -28q43 0 77.5 31t34.5 78q0 43 -34.5 75.5t-77.5 32.5 q-53 0 -78 -33.5t-25 -80.5zM627 256v922q0 12 11 23t25.5 18.5t30 11.5t23.5 4q31 0 61.5 -25.5t30.5 -54.5v-887q0 -39 -30.5 -54t-61.5 -15q-10 0 -25.5 3t-30 9t-24.5 17.5t-10 27.5zM694 291l23 -23l12 11v882q-4 0 -19.5 -4t-15.5 -14v-852zM997 592q0 37 17.5 88 t43 98t53.5 81t50 34h64v-240q25 14 35 -1t10 -31t-10.5 -32t-34.5 -3v-90h-58v96h-170zM1059 653h102v160zM1356 649h84v244h114v-244h84q-59 -86 -135 -153zM1833 256v922q0 12 11 23t25.5 18.5t30 11.5t23.5 4q31 0 61.5 -25.5t30.5 -54.5v-887q0 -39 -30.5 -54 t-61.5 -15q-10 0 -25.5 3t-30 9t-24.5 17.5t-10 27.5zM1901 291l22 -23l12 11v882q-4 0 -19 -4t-15 -14v-852z" />
<glyph unicode="h" horiz-adv-x="2486" d="M4 248v930q0 51 29.5 98t75 82t97.5 55.5t97 20.5h1860q55 0 111.5 -24t100.5 -62.5t71.5 -92t27.5 -110.5v-862q0 -41 -21.5 -90.5t-55.5 -90.5t-78 -68.5t-89 -27.5h-1982q-6 0 -12 2q-4 2 -10.5 3t-10.5 5q-33 12 -69.5 35t-68.5 52.5t-52.5 66.5t-20.5 78zM137 283 q0 -20 10.5 -42t26.5 -40.5t36 -31.5t38 -19q10 -4 25.5 -8.5t19.5 -4.5h1892q16 0 41 11.5t47.5 30t39 40t16.5 41.5v907q0 16 -12.5 38t-31 40.5t-40 30.5t-37.5 12h-1938q-20 0 -43.5 -12t-43 -31.5t-33 -43t-13.5 -44.5v-874zM225 713q0 80 49.5 124t122.5 44 q33 0 64 -12.5t55.5 -34t38.5 -53t14 -68.5q0 -74 -53 -120t-123 -46q-76 0 -122 46t-46 120zM293 713q0 -41 28.5 -70t71.5 -29q45 0 72 27t27 72q0 47 -27 73.5t-72 26.5q-39 0 -69.5 -30.5t-30.5 -69.5zM702 260v907q0 16 10.5 30.5t26 25t33 16.5t31.5 6q12 0 27.5 -7 t28.5 -17.5t22.5 -24.5t9.5 -29v-919q0 -29 -32 -47.5t-56 -18.5q-35 0 -68 20.5t-33 57.5zM780 260h33v914q-4 0 -18.5 -4.5t-14.5 -12.5v-897zM1106 481q0 53 28.5 86t62.5 59.5t62.5 54.5t28.5 71q0 27 -14 44t-41 17q-33 0 -45 -16.5t-19.5 -36t-17.5 -35.5t-39 -16 q0 29 5 57.5t18.5 51t36 36.5t57.5 14q49 0 81.5 -32.5t32.5 -83.5q0 -45 -26.5 -72t-58 -48.5t-58 -44t-26.5 -57.5h169v-49h-237zM1378 709l138 143l139 -143h-84v-228h-111v228h-82zM1942 260v918q0 14 11 26.5t27.5 21.5t34 14t27.5 5q12 0 27.5 -7t28.5 -17.5 t22.5 -24.5t9.5 -29v-919q0 -29 -32 -47.5t-56 -18.5q-35 0 -67.5 20.5t-32.5 57.5zM2019 260h33v914q-4 0 -18.5 -4.5t-14.5 -12.5v-897z" />
<glyph unicode="i" horiz-adv-x="2717" d="M37 788q0 33 24.5 55.5t53.5 22.5t53.5 -25.5t24.5 -52.5q0 -33 -28 -55t-50 -22q-31 0 -54.5 24.5t-23.5 52.5zM115 242q0 31 24.5 53t53.5 22q35 0 56 -27.5t21 -47.5q0 -33 -23.5 -55.5t-58.5 -22.5q-29 0 -51 25.5t-22 52.5zM121 1356q0 35 23.5 55.5t54.5 20.5 q35 0 56 -23.5t21 -52.5q0 -31 -25.5 -55.5t-51.5 -24.5q-31 0 -58 33q-20 27 -20 47zM336 791q0 41 30.5 69.5t67.5 28.5q43 0 69.5 -35t26.5 -70q0 -31 -31.5 -64.5t-62.5 -33.5q-45 0 -72.5 31t-27.5 74zM412 244q0 31 28.5 64.5t69.5 33.5q45 0 71.5 -34.5t26.5 -69.5 q0 -39 -31.5 -69t-66.5 -30q-41 0 -69.5 33t-28.5 72zM446.5 1422.5q28.5 31.5 69.5 31.5q39 0 68.5 -29.5t29.5 -68.5q0 -45 -29.5 -72t-68.5 -27q-45 0 -72 33q-26 26 -26 63q0 38 28.5 69.5zM668 788q0 53 47 95q41 37 90 37q57 0 94 -50q31 -41 31 -86q0 -53 -41 -90 t-90 -37q-51 0 -91 43t-40 88zM752 242q0 55 36.5 93t90.5 38q55 0 92 -42t37 -89q0 -57 -37 -94t-92 -37q-53 0 -90 41t-37 90zM758 1354q0 57 36.5 94t96.5 37q51 0 87 -37t36 -92q0 -53 -37 -93t-88 -40q-53 0 -92 42t-39 89zM1108 803q0 582 186 762q26 26 164 26h10 q436 0 793 -188q424 -223 424 -596q0 -152 -88 -291q-164 -260 -520 -391q-283 -104 -588 -105q-162 0 -178 15q-203 186 -203 768z" />
<glyph unicode="j" horiz-adv-x="1617" d="M23 61v848q0 104 40.5 321.5t63.5 250.5q33 49 100 86q61 35 99 35h968q49 0 126 -54.5t87 -103.5q84 -375 84 -504v-889q0 -51 -141 -51q-119 0 -141 39v156q0 41 -41 92t-82 51h-754q-33 0 -77 -43t-44 -78v-166q0 -51 -141 -51q-147 0 -147 61zM217 1266q0 -6 4 -24.5 t4 -24.5v-187q0 -8 21.5 -24.5t29.5 -16.5h381q18 0 47 26.5t29 49.5v367q0 12 -16.5 23t-26.5 11h-291q-74 0 -128 -64.5t-54 -135.5zM754 492q0 -16 24.5 -29.5t34.5 -13.5q12 0 35.5 14.5t23.5 28.5v421q0 18 -22.5 28.5t-36.5 10.5q-59 0 -59 -39v-421zM881 1067 q0 -18 29.5 -48t47.5 -30h381q20 0 41 27.5t15 46.5l4 197q0 76 -52.5 141t-132.5 65h-284q-14 0 -31.5 -11t-17.5 -28v-360z" />
<glyph unicode="k" horiz-adv-x="751" d="M18 438l402 406v-121l-305 -299l305 -270l6 -125l-340 319zM317 442l402 406v-121l-303 -299l303 -270l8 -125l-340 319z" />
<glyph unicode="l" horiz-adv-x="749" d="M23 33l8 125l303 270l-303 299v121l399 -406l-68 -90zM322 29l8 125l305 270l-305 299v121l401 -406l-67 -90z" />
<glyph unicode="n" horiz-adv-x="1660" d="M10 8q203 332 455 787q197 358 393 716l797 -1503q-80 33 -447 225q-299 156 -352 156q-76 0 -358 -135z" />
<glyph unicode="o" horiz-adv-x="1632" d="M18 1710l1557 -825q-256 -160 -731 -416q-713 -381 -770 -414q369 694 368 774q0 90 -151 390q-117 233 -273 491zM18 1710l1557 -825q-256 -160 -731 -416q-713 -381 -770 -414q369 694 368 774q0 90 -151 390q-117 233 -273 491zM27 1708l1597 -850 q-264 -164 -750 -424q-733 -393 -792 -426q379 713 379 795q0 92 -156 399q-121 240 -278 506z" />
<glyph unicode="p" horiz-adv-x="1564" d="M31 821l1515 807q-127 -211 -264 -479q-147 -285 -147 -328q0 -84 147 -352q61 -113 264 -453z" />
<glyph unicode="q" horiz-adv-x="1798" d="M23 1634q90 -33 483 -235q344 -176 401 -176q76 0 396 166q399 208 491 245q-295 -494 -858 -1618q-418 627 -913 1618z" />
<glyph unicode="r" horiz-adv-x="2996" d="M18 551q0 6 10.5 12t0.5 12l1865 510v-464h994v817h88v-936h-1082v-490l-1818 498l-45 22q10 6 -1.5 9.5t-11.5 9.5z" />
<glyph unicode="s" horiz-adv-x="2490" d="M12 164v1272q619 -203 1506 -637q-692 -279 -709 -285q-436 -180 -797 -350zM2060 27v1560h117v-1560h-117zM2351 20v1561h115v-1561h-115z" />
<glyph unicode="t" horiz-adv-x="1656" d="M27 33v1687h94v-1687h-94zM94 860l1489 768v-1538q-494 274 -743 406q-424 221 -746 364z" />
<glyph unicode="u" horiz-adv-x="1650" d="M31 111v1501l1497 -778zM1518 27v1706h94v-1706h-94z" />
<glyph unicode="v" horiz-adv-x="1710" d="M0 1137q0 49 34 77.5t79 28.5q49 0 87 -21.5t38 -84.5q0 -53 -33 -86t-86 -33q-49 0 -84 35t-35 84zM154 6v137h1417v910h-768v-226q-4 0 -15.5 6.5t-15.5 6.5q-27 14 -92.5 55t-139 87t-139 86t-92.5 56l25 25l469 285v-232h837q-6 -16 -3 -32.5t13.5 -30t26 -18.5 t35.5 3v-1046q-13 5 -24 5q-20 1 -36 -15t-16 -39q0 -11 4 -23h-1486z" />
<glyph unicode="w" horiz-adv-x="954" d="M10 0v1421h269v-1421h-269zM670 0v1421h268v-1421h-268z" />
<glyph unicode="y" horiz-adv-x="1560" d="M0 6v1430h1552v-1430h-1552zM168 164h1227v125h-1227v-125zM168 389h1227v146h-1227v-146zM168 637h1227v145h-1227v-145zM168 895h1227v147h-1227v-147zM168 1143h1227v135h-1227v-135z" />
<glyph unicode="z" horiz-adv-x="1622" d="M6 139v1151l12 13q90 41 212 66.5t239 39.5t214 19.5t138 7.5q9 1 35 1h30q52 -1 123.5 -8.5t158.5 -20.5t171 -31.5t159 -44t124 -56.5l12 -1137l-10 -10q-158 -57 -294 -84t-242 -36q-87 -7 -152 -7h-28q-72 2 -99 4q-4 -1 -13 -1q-18 0 -56 3q-56 4 -134 11.5 t-169 18.5t-176 26.5t-153.5 34t-101.5 40.5zM162 250q8 -16 61 -31.5t130 -29t162 -22.5t157 -13q48 -3 83 -3q18 0 32 1q44 2 38 10q-4 -6 39 -8q17 -1 38 0q32 0 74 1q68 3 151 10t158 19.5t128 28.5t66 37v930l-11 12q-61 27 -154 43t-187.5 24.5t-173.5 12.5t-115 8 q-35 2 -87.5 2t-130 -8t-185 -26.5t-251.5 -55.5l-22 -12v-930z" />
<glyph unicode="{" horiz-adv-x="1609" d="M6 139v1151l12 13q57 27 130 47t153 34.5t160 23.5t150.5 15.5t126 8.5t83.5 4q18 0 82 -5.5t149 -14.5t181 -22.5t180 -27.5t145.5 -30.5t75.5 -32.5v-1164l-10 -10q-152 -49 -281 -74.5t-231 -36t-179 -11.5t-124 -1q-20 0 -88 5t-157 14.5t-187 22.5t-180 27.5 t-136.5 31t-54.5 32.5zM162 250q0 -14 45 -26.5t112.5 -24t148.5 -19.5t154.5 -15t128 -10t68.5 -3q12 0 66.5 3t127 8t154.5 13t152 19.5t115 24.5t45 30v930l-11 12q-57 25 -148 40t-184.5 24.5t-176 14.5t-121.5 9h-141.5t-159.5 -8t-173.5 -26.5t-179.5 -53.5l-22 -12 v-930zM240 295v78h65v-78h-65zM406 295v78h133v-78h-133zM649 295v78h133v-78h-133zM881 295v78h133v-78h-133zM1114 295v78h143v-78h-143zM1358 295v78h65v-78h-65z" />
<glyph unicode="|" horiz-adv-x="2488" d="M18 600v682q0 20 72 74q10 6 139 71q84 41 129 113q20 41 39 82q37 68 66 68h567q12 0 47 -30t43 -42q266 94 281 94q109 0 108 -127q0 -35 -10 -110q-10 -66 -8 -84q59 -16 170 -17h70q123 0 184 -20q88 -29 123 -113q78 35 155 70q145 63 174 63q27 0 65 -26.5 t38 -57.5v-991q0 -35 -37 -59.5t-68 -24.5q-16 0 -153 55q-143 59 -152 62q-16 -94 -110 -154q-27 -16 -111 -31q-82 -121 -223 -120q-133 0 -225 94q-119 -104 -238 -105q-74 0 -135 25q-41 18 -82 49q-33 25 -35 25q12 0 -70.5 -49.5t-164.5 -49.5q-170 0 -279 134 q-14 33 -41 100q-25 59 -53 98q-57 72 -133 111q-47 20 -97 39q-14 6 -29.5 43t-15.5 59zM1194 1522q88 -131 109 -129h73l17 196z" />
<glyph unicode="}" horiz-adv-x="1165" d="M2 4v80h1163v-80h-1163zM2 274v80h1172v-80h-1172zM16 651l985 365l-978 336l-7 6q4 12 9 22q4 10 6 19.5t6 17.5l5 12.5t9 2.5h8l1078 -365q10 -4 12 -5t2 -9v-9q0 -2 -4 -13t-4 -15t4 -11.5t4 -11.5v-6q0 -10 -6 -14t-17 -8l-1077 -394h-6q-4 6 -6 15q-4 6 -5 12t-3 10 q-4 6 -8.5 22.5t-6.5 20.5z" />
<glyph unicode="~" horiz-adv-x="2146" />
<glyph unicode="&#xa0;" />
<glyph unicode="&#xad;" horiz-adv-x="1323" d="M0 47v815q8 0 27.5 1t41 2t41 2t27.5 1q18 2 30.5 11.5t23 19.5t21.5 20.5t28 14.5q49 8 106 10t107 6q59 6 113.5 32t100.5 65.5t79.5 90t52.5 105.5q8 27 12 59.5t12 62.5t25.5 49.5t54.5 19.5t56.5 -17.5t28.5 -43t11 -56.5t2 -57q0 -82 -11 -160t-34 -156v-16 q39 0 82 4t84 1t79 -16.5t67 -48.5q16 -20 26.5 -44.5t10.5 -53.5q0 -41 -15.5 -73.5t-44.5 -61.5v-82q0 -29 -25.5 -57.5t-50.5 -40.5q-2 -29 -6 -62t-13 -63.5t-27.5 -55t-51.5 -36.5q-16 -8 -43 -9.5t-39 -23.5q-4 -8 -11 -26.5t-15 -26.5q-82 -90 -169 -121t-206 -31 q-61 0 -124 13.5t-116 45.5q-37 20 -66.5 45t-74.5 25h-27q-12 -4 -20 -17.5t-13.5 -27.5t-8.5 -25.5t-7 -11.5h-131z" />
<glyph unicode="&#x2000;" horiz-adv-x="920" />
<glyph unicode="&#x2001;" horiz-adv-x="1841" />
<glyph unicode="&#x2002;" horiz-adv-x="920" />
<glyph unicode="&#x2003;" horiz-adv-x="1841" />
<glyph unicode="&#x2004;" horiz-adv-x="613" />
<glyph unicode="&#x2005;" horiz-adv-x="460" />
<glyph unicode="&#x2006;" horiz-adv-x="306" />
<glyph unicode="&#x2007;" horiz-adv-x="306" />
<glyph unicode="&#x2008;" horiz-adv-x="230" />
<glyph unicode="&#x2009;" horiz-adv-x="368" />
<glyph unicode="&#x200a;" horiz-adv-x="102" />
<glyph unicode="&#x2010;" horiz-adv-x="1323" d="M0 47v815q8 0 27.5 1t41 2t41 2t27.5 1q18 2 30.5 11.5t23 19.5t21.5 20.5t28 14.5q49 8 106 10t107 6q59 6 113.5 32t100.5 65.5t79.5 90t52.5 105.5q8 27 12 59.5t12 62.5t25.5 49.5t54.5 19.5t56.5 -17.5t28.5 -43t11 -56.5t2 -57q0 -82 -11 -160t-34 -156v-16 q39 0 82 4t84 1t79 -16.5t67 -48.5q16 -20 26.5 -44.5t10.5 -53.5q0 -41 -15.5 -73.5t-44.5 -61.5v-82q0 -29 -25.5 -57.5t-50.5 -40.5q-2 -29 -6 -62t-13 -63.5t-27.5 -55t-51.5 -36.5q-16 -8 -43 -9.5t-39 -23.5q-4 -8 -11 -26.5t-15 -26.5q-82 -90 -169 -121t-206 -31 q-61 0 -124 13.5t-116 45.5q-37 20 -66.5 45t-74.5 25h-27q-12 -4 -20 -17.5t-13.5 -27.5t-8.5 -25.5t-7 -11.5h-131z" />
<glyph unicode="&#x2011;" horiz-adv-x="1323" d="M0 47v815q8 0 27.5 1t41 2t41 2t27.5 1q18 2 30.5 11.5t23 19.5t21.5 20.5t28 14.5q49 8 106 10t107 6q59 6 113.5 32t100.5 65.5t79.5 90t52.5 105.5q8 27 12 59.5t12 62.5t25.5 49.5t54.5 19.5t56.5 -17.5t28.5 -43t11 -56.5t2 -57q0 -82 -11 -160t-34 -156v-16 q39 0 82 4t84 1t79 -16.5t67 -48.5q16 -20 26.5 -44.5t10.5 -53.5q0 -41 -15.5 -73.5t-44.5 -61.5v-82q0 -29 -25.5 -57.5t-50.5 -40.5q-2 -29 -6 -62t-13 -63.5t-27.5 -55t-51.5 -36.5q-16 -8 -43 -9.5t-39 -23.5q-4 -8 -11 -26.5t-15 -26.5q-82 -90 -169 -121t-206 -31 q-61 0 -124 13.5t-116 45.5q-37 20 -66.5 45t-74.5 25h-27q-12 -4 -20 -17.5t-13.5 -27.5t-8.5 -25.5t-7 -11.5h-131z" />
<glyph unicode="&#x2012;" horiz-adv-x="1323" d="M0 47v815q8 0 27.5 1t41 2t41 2t27.5 1q18 2 30.5 11.5t23 19.5t21.5 20.5t28 14.5q49 8 106 10t107 6q59 6 113.5 32t100.5 65.5t79.5 90t52.5 105.5q8 27 12 59.5t12 62.5t25.5 49.5t54.5 19.5t56.5 -17.5t28.5 -43t11 -56.5t2 -57q0 -82 -11 -160t-34 -156v-16 q39 0 82 4t84 1t79 -16.5t67 -48.5q16 -20 26.5 -44.5t10.5 -53.5q0 -41 -15.5 -73.5t-44.5 -61.5v-82q0 -29 -25.5 -57.5t-50.5 -40.5q-2 -29 -6 -62t-13 -63.5t-27.5 -55t-51.5 -36.5q-16 -8 -43 -9.5t-39 -23.5q-4 -8 -11 -26.5t-15 -26.5q-82 -90 -169 -121t-206 -31 q-61 0 -124 13.5t-116 45.5q-37 20 -66.5 45t-74.5 25h-27q-12 -4 -20 -17.5t-13.5 -27.5t-8.5 -25.5t-7 -11.5h-131z" />
<glyph unicode="&#x2013;" horiz-adv-x="1042" d="M0 47v815q6 0 21.5 1t32.5 2t32 2t22 1q14 2 23.5 11.5t18 19.5t17 20.5t21.5 14.5q39 8 83.5 10t83.5 6q47 6 89.5 32t78.5 65.5t62.5 90t41.5 105.5q6 27 9.5 59.5t9.5 62.5t20 49.5t43 19.5t44 -17.5t22 -43t8.5 -56.5t1.5 -57q0 -82 -8.5 -160t-26.5 -156v-16 q31 0 64.5 4t66 1t62 -16.5t52.5 -48.5q13 -20 21 -44.5t8 -53.5q0 -41 -12 -73.5t-35 -61.5v-82q0 -29 -20 -57.5t-40 -40.5q-1 -29 -4.5 -62t-10.5 -63.5t-21.5 -55t-40.5 -36.5q-12 -8 -33.5 -9.5t-30.5 -23.5q-3 -8 -8.5 -26.5t-11.5 -26.5q-65 -90 -133 -121t-162 -31 q-47 0 -96.5 13.5t-91.5 45.5q-29 20 -52 45t-59 25h-21q-9 -4 -15.5 -17.5t-10.5 -27.5t-6.5 -25.5t-5.5 -11.5h-103z" />
<glyph unicode="&#x2014;" horiz-adv-x="2066" d="M0 47v815q13 0 43.5 1t64 2t64 2t43.5 1q28 2 47.5 11.5t36 19.5t34 20.5t44.5 14.5q77 8 166 10t168 6q93 6 178.5 32t157.5 65.5t124.5 90t82.5 105.5q12 27 18.5 59.5t19 62.5t40 49.5t85.5 19.5t88.5 -17.5t45 -43t17.5 -56.5t3 -57q0 -82 -17.5 -160t-53.5 -156v-16 q62 0 129 4t131.5 1t124 -16.5t105.5 -48.5q25 -20 41.5 -44.5t16.5 -53.5q0 -41 -24.5 -73.5t-69.5 -61.5v-82q0 -29 -40 -57.5t-79 -40.5q-4 -29 -10 -62t-20 -63.5t-43 -55t-81 -36.5q-25 -8 -67.5 -9.5t-61.5 -23.5q-6 -8 -17 -26.5t-24 -26.5q-128 -90 -264.5 -121 t-323.5 -31q-96 0 -195 13.5t-182 45.5q-58 20 -104.5 45t-116.5 25h-43q-18 -4 -30.5 -17.5t-21.5 -27.5t-13.5 -25.5t-10.5 -11.5h-206z" />
<glyph unicode="&#x202f;" horiz-adv-x="368" />
<glyph unicode="&#x205f;" horiz-adv-x="460" />
<glyph unicode="&#xe000;" d="M0 0z" />
</font>
</defs>
</svg>
