<?xml version="1.0" standalone="no"?>
<!DOCTYPE svg PUBLIC "-//W3C//DTD SVG 1.1//EN" "http://www.w3.org/Graphics/SVG/1.1/DTD/svg11.dtd" >
<svg xmlns="http://www.w3.org/2000/svg">
<metadata></metadata>
<defs>
<font id="omsym2regular" horiz-adv-x="1794" >
<font-face units-per-em="2048" ascent="1638" descent="-410" />
<missing-glyph horiz-adv-x="1024" />
<glyph horiz-adv-x="2048" />
<glyph horiz-adv-x="2048" />
<glyph unicode="&#xd;" horiz-adv-x="1024" />
<glyph unicode=" "  horiz-adv-x="1024" />
<glyph unicode="&#x09;" horiz-adv-x="1024" />
<glyph unicode="&#xa0;" horiz-adv-x="1024" />
<glyph unicode="!" horiz-adv-x="2021" d="M12 739q0 233 58 402q59 176 219 397q68 -39 67 -90q0 -10 -80 -158q-86 -162 -108 -233q-18 -63 -35 -187q-14 -106 -14 -143q0 -88 14 -166q27 -141 60 -221q18 -47 96 -178q67 -113 67 -131q0 -23 -22.5 -49.5t-42.5 -26.5q-57 0 -160 229q-90 203 -104 291 q-14 96 -15 264zM238 733q0 379 227 637q225 252 547 252q324 0 547 -272q217 -261 217 -611q0 -340 -230 -614q-221 -266 -475 -266h-166q-14 0 -80 24q-84 35 -98 39q-229 74 -371 359q-119 238 -118 452zM319 748q0 -322 193 -553q199 -240 494 -240q270 0 471 211 q215 230 215 582q0 338 -202 564t-491 226q-270 0 -475 -238.5t-205 -551.5zM379 573q0 16 63 201q76 227 95 291q45 29 79 29q29 0 93 -207q41 -150 84 -299v-47h-93q-23 84 -36 96t-78 12q-8 0 -22.5 5t-20.5 5q-39 0 -72 -118h-78q-14 0 -14 32zM547 750q-8 0 45 -5 q33 -1 47 7q-16 121 -41 147q-18 -31 -51 -149zM860 526v553h221q127 2 127 -137q0 -31 -6 -65q-10 -8 -28 -29q-2 -14 0 -33q57 -71 57 -137q0 -76 -51 -119q-41 -35 -99 -33h-221zM948 623h150q26 30 26 69q0 82 -125 82q-16 0 -31.5 -7t-19.5 -7v-137zM948 874l123 -16 l41 31v63q-57 45 -113 45q-16 0 -31.5 -8t-19.5 -8v-107zM1266 934q0 78 59 121q51 39 131 39q172 0 176 -117v-47q-4 0 -11 -8.5t-24 -8.5q-14 0 -70.5 49.5t-70.5 49.5q-39 0 -84 -51v-39q16 -18 45 -48q240 -57 240 -196q0 -98 -86 -141q-53 -27 -115 -27q-70 0 -94 10 q-55 23 -94 107v63h80q0 -33 41 -64.5t67 -31.5q27 0 94 51v53q-39 37 -118 64q-90 29 -115 49q-51 39 -51 123zM1657 31q0 14 4 32q231 297 231 691q0 180 -65 360q-51 143 -170 348q49 63 69 64q33 0 107 -125q57 -98 78 -158q100 -262 100 -489q0 -86 -23.5 -226.5 t-52.5 -220.5q-25 -68 -90 -192q-88 -160 -129 -160q-20 0 -39.5 25.5t-19.5 50.5z" />
<glyph unicode="&#x22;" horiz-adv-x="2461" d="M23 -104l2 1398l313 2l-2 121l502 -2v-123h831l2 131h510l4 -127l250 2l-2 -1402h-2410zM147 1174l3 -1143l2154 -2v1136zM336 848h446l-2 -127h-442zM1542 719l2 127l193 2l-4 194h127l2 -196h186v-127h-186l4 -191h-135v191h-189z" />
<glyph unicode="#" horiz-adv-x="9019" d="M47 967q37 35 51 34l449 -903q711 319 1591 529q838 199 1682 264l677 16l680 -16q821 -49 1688 -252q891 -207 1597 -528l430 907q35 0 58 -35l-432 -928q-27 -2 -27 -12q-1556 659 -3316 788l-557 29l-786 -29q-1659 -113 -3314 -800zM236 1044q12 18 20 37 q586 250 637 250q14 0 11 -11t11 -11q18 0 21.5 5t7.5 5l254 -711l-602 -252zM1079 1356q0 2 17 39q162 55 417 131q246 74 261 73q41 0 55 -51q186 -661 186 -692q0 -18 -7 -29.5t-7 -15.5l-625 -176q-14 25 -43 12zM1956 1620l688 166q4 0 20.5 -13.5t28.5 -17.5 q43 -249 137 -745l-645 -154zM2830 1767q0 14 13.5 26.5t15.5 21.5q141 27 393 57q225 31 256 31q16 0 41 -13.5t35 -13.5l61 -725q0 -27 -30 -59q-119 -16 -625 -74q-6 6 -22 16q-35 156 -86 439q-51 272 -52 294zM3719 1888q12 6 172 37l596 19q-12 -4 -12 -7 q10 -12 8 -24v-791q-8 16 -16 15q-6 -2 -6 -13l-598 -24q-27 0 -68 28q-27 223 -76 760zM4622 1122v801h715l-49 -788q-16 0 -27 10q-12 -10 -10 -45l-606 24q0 10 -6 13q-8 2 -17 -15zM5423 1112q25 254 76 760q37 31 55 31l694 -97q0 -6 7.5 -19.5t7.5 -19.5l-158 -759 h-39q-14 0 -74 12q-66 14 -96 16q-360 35 -473 76zM6275 1024q0 -12 80 430q12 92 55 301q39 18 690 -110q2 -27 8.5 -37.5t6.5 -8.5q0 -29 -107 -378q-25 -104 -49 -207q-37 -133 -84 -158l-588 129q0 4 -6 13.5t-6 25.5zM7055 852q39 164 127 475q20 78 41 156 q33 102 78 104l641 -217l-278 -723zM7823 633l260 698q18 0 29.5 6t644.5 -270l-303 -678q-8 8 -22 4t-19 -14z" />
<glyph unicode="$" horiz-adv-x="2025" d="M16 723q0 100 17 238q8 78 104 311q109 262 166 262q23 0 44.5 -21.5t21.5 -46.5t-11 -41q-100 -123 -170 -335q-66 -203 -65 -359q0 -172 59 -348q41 -115 113 -250q61 -111 61 -123q0 -20 -26 -82h-64q-250 397 -250 795zM252 731q0 389 225 649q219 252 535 252 q328 0 547 -268q213 -260 213 -641q0 -375 -238 -639q-225 -254 -522 -254q-328 0 -544 264t-216 637zM322 731q0 -328 202.5 -566.5t491.5 -238.5q287 0 480.5 230.5t193.5 588.5q0 319 -191 551q-197 238 -483 238q-276 0 -481 -225q-213 -233 -213 -578zM848 170 q0 57 39 111q43 61 106 61q68 0 105 -57q30 -48 30 -109q0 -86 -51 -131q-39 -35 -90 -35q-57 0 -98 45t-41 115zM864 469v938h258v-938h-258zM1642 -12q246 379 246 749q0 70 -16 193q-14 117 -82 276q-10 25 -72 129q-53 90 -53 109q0 23 20.5 50.5t38.5 27.5 q61 0 158 -228q80 -195 94 -293q29 -188 29 -290q0 -158 -68.5 -376t-152.5 -337l-33 -61q-12 -25 -39 -25q-16 0 -34.5 26.5t-35.5 49.5z" />
<glyph unicode="%" horiz-adv-x="2603" d="M8 1061q0 121 45 229.5t140 192.5h8q10 0 20 -8.5t19.5 -19.5t14.5 -22.5t5 -17.5q0 -23 -11 -42t-25.5 -36.5t-31 -36t-24.5 -36.5q-51 -100 -51 -220q0 -102 40 -181t103 -154v-9q0 -20 -19.5 -47.5t-39.5 -27.5q-12 0 -16.5 6t-16.5 18q-84 88 -122 186.5t-38 225.5z M201 985v135q12 27 16 56.5t19 62.5q25 63 66.5 111.5t96 81t115.5 50t125 17.5q94 0 175 -33.5t141.5 -94t94 -142.5t33.5 -176q0 -92 -33.5 -172t-93 -139.5t-138.5 -93.5t-171 -34q-66 0 -129 17.5t-117.5 51.5t-97.5 82t-67 112q-14 25 -18.5 54.5t-16.5 53.5zM301 1061 q0 -70 25.5 -133.5t70.5 -112.5t106.5 -77.5t135.5 -28.5q72 0 135.5 27.5t109.5 74.5t72.5 109.5t26.5 132.5q0 74 -26.5 136t-72.5 109.5t-106.5 74t-130.5 26.5q-74 0 -136 -26.5t-109.5 -73t-74 -107.5t-26.5 -131zM412 -49v463h227q14 0 27.5 -12.5t21.5 -30t13.5 -37 t5.5 -31.5q0 -25 -13.5 -54.5t-13.5 -53.5q0 -12 21.5 -38t21.5 -63v-15t-1 -23.5t-3 -24t-4 -13.5l-68 -67l-20 -4q-20 -4 -31 -4h-109h-67zM487 35h125q14 0 20.5 17.5t6.5 23.5q0 27 -9 51.5t-42 24.5h-101v-117zM487 236q23 0 46.5 -3.5t43 0t32 14.5t12.5 40 q0 12 -7.5 31.5t-25.5 19.5h-101v-102zM588 741v144h119v-144h-119zM588 928v428h119v-428h-119zM764 -57v471h252q18 0 32.5 -15.5t23.5 -36t14.5 -42t5.5 -33.5q0 -31 -16.5 -57.5t-16.5 -51.5q0 -6 5 -20.5t11 -14.5q0 -6 2 -25.5t5 -41t6.5 -42t3.5 -26.5l8 -24 q8 33 20.5 75.5t30.5 67.5l92 287h84l8 -8q6 -20 15 -41q6 -16 11 -34t9 -28q8 -31 25.5 -77t34 -94t28.5 -92t12 -73q-2 -6 -2 -12q-4 -12 -6 -12h-59l-17 16l-24 109h-143q0 -6 -8.5 -24.5t-8.5 -25.5q-4 -4 -7 -16t-7 -25.5t-9 -23.5t-12 -10h-133l-26 24q0 6 -1 22.5 t-3.5 36t-3.5 36t-1 22.5q0 8 -6 25.5t-18 17.5h-127v-184h-84zM848 219h127l24 27v65l-24 27h-127v-119zM1024 700q0 6 22.5 35t49 67t49 81t22.5 78v176q0 31 -15 68.5t-36.5 74.5t-47.5 68.5t-44 50.5v8q0 18 21.5 47t46.5 29q6 0 8 -1t10 -7q82 -90 129 -191.5 t47 -222.5q0 -100 -27.5 -189.5t-91.5 -171.5q-12 -16 -22 -28q-10 -10 -19.5 -21.5t-15.5 -17.5q-8 -6 -10 -7t-8 -1q-25 0 -46.5 27.5t-21.5 47.5zM1251 160h68q0 10 -2 28.5t-5 38t-10.5 34t-15.5 18.5q-4 -6 -9 -20.5t-11 -32t-10.5 -36t-4.5 -30.5zM1303 1044 q0 127 41.5 241t142.5 198h8q20 0 39.5 -29t19.5 -47v-16q-63 -78 -103 -157t-40 -181t40 -185.5t103 -158.5v-9q0 -20 -19 -47.5t-40 -27.5q-12 0 -16 6t-17 18q-76 88 -117.5 181t-41.5 214zM1495 -57v471h84v-178q16 12 33.5 31.5t34 40t32 40t27.5 31.5q4 4 8 9t10 11 q6 8 15 15h76q2 0 6 -8q0 -4 2 -9v-10l-133 -160v-8q0 -25 18 -49.5t31 -42.5q10 -16 25.5 -42t31.5 -50q18 -29 37 -60h8v439h301l10 -8v-27v-25l-10 -8h-209v-110h201v-84h-201v-117h228v-92h-404l-127 192l-8 8h-8q-4 -4 -9.5 -10t-11.5 -10q-8 -8 -14 -12v-168h-84z M1495 1044q0 66 17.5 130.5t51 121t82 101.5t111.5 69q31 12 61.5 16.5t55.5 16.5h68q98 0 178 -33.5t137 -95t89 -144.5t32 -182q0 -94 -34 -172.5t-94.5 -136t-141 -89.5t-175.5 -32q-88 0 -167.5 33t-139 91.5t-95.5 136t-36 169.5zM1597 1061q0 -70 27 -133.5t73 -112.5 t108.5 -77.5t136.5 -28.5q127 0 211.5 76.5t123.5 191.5v67q0 74 -25.5 138.5t-70.5 112.5t-106.5 76t-132.5 28q-74 0 -136.5 -26.5t-108.5 -73t-73 -107.5t-27 -131zM1815 793v471l8 8h84h93t82 -12.5t57.5 -42t21.5 -89.5q0 -37 -5.5 -67.5t-37.5 -48.5q-6 -4 -16.5 -9.5 t-20.5 -11.5q-10 -8 -23 -14h-151v-184h-92zM1907 1069h110q6 0 23.5 7t17.5 20v59q0 6 -13 15.5t-20 9.5h-118v-111zM2320 700q0 6 12.5 21.5t28 35t30.5 38t22 30.5q12 27 27.5 65t21.5 71v92q0 109 -36 188.5t-106 157.5v8q0 18 20.5 47t45.5 29q10 0 18 -8 q82 -96 129 -198.5t47 -223.5v-84q-12 -31 -16 -63t-18 -64q-6 -16 -25.5 -52t-44.5 -73t-49.5 -64.5t-40.5 -27.5q-10 0 -21.5 9t-20.5 21.5t-16.5 25.5t-7.5 19z" />
<glyph unicode="(" horiz-adv-x="2408" d="M6 721q0 82 22.5 165t67.5 152.5t109.5 117.5t148.5 61q274 29 544.5 42t545.5 13q92 0 169 -3t155.5 -9.5t167.5 -14.5t206 -18q100 -14 154.5 -61.5t81 -116t32 -153.5t5.5 -175q0 -78 -3.5 -162t-26 -155.5t-70.5 -124t-140 -66.5q-129 -16 -226.5 -24.5t-186.5 -12.5 t-180 -5t-208 -1q-96 14 -206.5 15t-224.5 -2t-227.5 -3t-217 13.5t-192.5 45t-155.5 92t-104.5 156t-40 234.5zM70 715q0 -57 24.5 -118.5t52.5 -111.5q0 4 -1 13.5t-1 18.5t4.5 16.5t14.5 7.5q4 0 8 -1t8 -10q2 -4 11.5 -23.5t20.5 -42t21.5 -42t12.5 -23.5 q8 -12 22.5 -20t28.5 -16.5t24.5 -16.5t10.5 -22q0 -12 -5 -19.5t-28 -3.5q199 -33 395.5 -44t395.5 -11h157q-96 2 -194.5 5t-179 29.5t-137 88t-66.5 182.5v164q0 100 10 183t45 143.5t99.5 97.5t172.5 45h-88q-76 0 -143.5 -3t-136 -8.5t-141 -13.5t-156.5 -18 q-66 -4 -115 -50.5t-82 -111t-49 -136t-16 -128.5zM131 715q0 27 28.5 44t67.5 26.5t77 13.5t56 4q8 0 45 -3t79 -11.5t76 -20.5t34 -31v-32q-23 -31 -43 -60q-16 -25 -34.5 -51.5t-31.5 -42.5q-10 -8 -13 -9t-15 -1q-25 0 -49.5 11t-47.5 11q-29 0 -51 -11t-47 -11h-16 l-111 153q-2 4 -2 8q-2 5 -2 13zM147 918q0 35 15.5 71.5t42 66t59.5 49t68 19.5q-20 -16 -51 -51t-57.5 -71.5t-41 -64.5t-2.5 -26q-4 -8 -8 -9t-8 -1q-17 1 -17 17zM154 470q0 -5 4 -5t4 5t-4 5t-4 -5zM164 442.5q0 -14.5 4 -10.5t4 10.5t-4 10.5t-4 -10.5zM168 715 q8 -14 19.5 -36t24.5 -43.5t28.5 -36.5t31.5 -15q20 0 42 6t46 6q23 0 44.5 -6t41.5 -6q14 0 33 15t34 36.5t26.5 44t11.5 35.5q0 10 -20.5 18t-46 13.5t-49 8.5t-32.5 3q-12 0 -16 -6.5t-6 -12.5t-5 -12t-16 -6q-12 0 -16 6t-6 12t-6 12.5t-17 6.5q-37 0 -74.5 -11.5 t-72.5 -31.5zM176 415q0 -5 4 -5t4 5t-4 5t-4 -5zM190 393q0 -4 1.5 -8t9.5 -8v6q0 4 -1 8t-10 8v-6zM201 852q0 16 24.5 41t40.5 29q4 -8 8.5 -13.5t4.5 -13.5v-6q-2 -2 -10.5 -12.5t-17.5 -22.5t-17.5 -21.5t-10.5 -9.5q-22 0 -22 29zM213 360q0 -16 24.5 -32.5 t41.5 -16.5h10q-20 12 -40 27.5t-36 28.5v-7zM295 922q16 0 37.5 -4.5t21.5 -28.5q-8 -4 -13 -7t-13 -3q-23 0 -28 13.5t-5 29.5zM332 813q0 41 31.5 75t76.5 34q0 -12 -13 -31t-30.5 -36t-36 -29.5t-28.5 -12.5zM344 616v33h31v-33h-31zM344 672v33h31v-33h-31zM453 895 q0 10 10 27q37 -12 43 -38t6 -61h-27q0 14 -5 23.5t-11 16.5t-11 14.5t-5 17.5zM702 672q0 -35 3.5 -79t10.5 -90t22.5 -83t40 -61.5t61.5 -24.5q6 0 36.5 8t64.5 20.5t61.5 25.5t27.5 22v622l-186 76h-21q-45 0 -69.5 -50t-35.5 -117t-13.5 -129t-2.5 -87v-53zM778 563 q16 0 27.5 -16.5t17.5 -37t8.5 -37.5t2.5 -19l32 110h11q16 0 26 -15.5t15.5 -34.5t8.5 -37.5t5 -22.5l33 110h22q-2 -6 -7 -23.5t-10 -37t-9.5 -36.5t-6.5 -24q-4 -16 -5 -24t-17 -8h-10q-2 4 -7.5 16t-10.5 26.5t-9 28t-6 17.5l-12 10l-33 -98h-10q-4 0 -11.5 1t-11.5 9 q0 2 -5 19.5t-11.5 40t-11.5 46t-5 37.5zM801 698q0 37 18.5 59.5t52.5 22.5q45 0 63.5 -18.5t18.5 -63.5q0 -41 -15 -61.5t-56 -20.5q-37 0 -59.5 22.5t-22.5 59.5zM834 698q0 -20 12 -39.5t37 -19.5q4 0 21.5 6t17.5 17v75q0 16 -13.5 18.5t-25.5 2.5q-29 0 -39 -15.5 t-10 -44.5zM834 836v151h26v-135h82v-16h-108zM909 311l13 -10q4 -4 41.5 -6t84 -3t89.5 -1h57h109q23 51 22 112q-59 0 -112.5 -3t-102.5 -12t-98 -27.5t-103 -49.5zM909 1128q53 -31 102.5 -49t98.5 -28.5t102.5 -14.5t112.5 -4q0 66 -22 119h-27q-92 0 -186.5 3 t-180.5 -26zM975 1305q4 0 11 5t11 5q16 6 59.5 23.5t92.5 36t93 35.5t61 24v-129h-328zM987 127h316v-127zM1067 993q0 -25 1 -88t2 -134t2 -133.5t1 -86.5q0 -6 1 -21.5t2 -33t3 -33t4 -21.5q104 4 228.5 3t230.5 -25v22q0 70 -5 137.5t-5 141.5v180q8 29 9 54.5t1 54.5 q-119 0 -235.5 -8.5t-239.5 -8.5zM1073 1190h524q123 0 190.5 -37t100.5 -100.5t40 -150.5t7 -187q0 -154 -27.5 -244t-89 -138t-162 -64.5t-245.5 -22.5h174q88 0 156.5 2t135.5 6t141.5 13t176.5 24q12 4 37 13t41 20l-22 10l55 256h33v262h-33l-55 244q4 0 7 9t3 13 q0 8 -15.5 14.5t-33.5 10.5q-23 6 -49 8q-29 4 -99.5 11t-150.5 14.5t-150.5 12.5t-99.5 5q-33 2 -117 2t-178 -1t-178 -2t-117 -3zM1358 285q90 0 184 3t187 23v13q0 20 -23 20q-31 8 -71 18.5t-82 18.5t-83.5 13t-78.5 5q-14 0 -21.5 -14t-9.5 -32.5t-2 -38v-29.5z M1358 1151q0 -25 2 -54.5t18 -54.5h33q37 0 80 2.5t86 8.5t83 19t69 36v4q0 16 -55.5 24.5t-124 11.5t-127 3h-64.5zM1487 1305q4 4 22.5 10t22.5 10q31 12 77 30.5t89 35.5q51 20 106 43h11v-129h-328zM1499 127h316v-121h-23q-55 20 -106 41q-43 16 -89.5 35.5t-76.5 32.5 q-4 0 -10.5 6t-10.5 6zM1575 508l22 -98q2 0 30 -12.5t62.5 -26t64.5 -25.5t34 -12q31 0 51.5 27.5t31.5 70.5t15 93t5 95.5t0 79t-1 41.5q0 12 2 70.5t-4 125.5t-27.5 119t-68.5 52h-10q-31 -20 -38 -30.5t-17.5 -17.5t-36 -15.5t-93.5 -24.5q-10 -20 -16 -59t-6 -60v-393z M1956 410q0 20 1 35.5t11 39.5v459q-10 29 -11 46.5t-1 41.5q0 29 15.5 44.5t38 22.5t48 8t45.5 1h60q25 -10 36 -31.5t19 -44.5q6 -51 10 -90t7 -73.5t4.5 -69.5t1.5 -78t-1.5 -80t-4.5 -74t-7 -76.5t-10 -91.5q-8 -25 -19.5 -41t-35.5 -24h-66q-20 0 -44.5 1t-46 8 t-36 22.5t-14.5 44.5zM1988 960.5q3 -40.5 8 -83.5t10 -84t5 -72q0 -78 -11 -159t-11 -159q0 -14 14 -21t33.5 -10t39 -4t27.5 -1q55 0 77 42t25 99t-3.5 115.5t-6.5 91.5q0 20 1.5 66t-1 97.5t-6.5 97.5t-14 66l-12 21h-49q-4 0 -23.5 1t-41 0t-40 -8t-20.5 -24 q-4 -31 -1 -71.5zM2302 382q0 -5 4 -5t4 5t-4 5t-4 -5zM2302 1054q0 -5 4 -5t4 5t-4 5t-4 -5zM2312 426q0 -6 4 -6t4 6t-4 6t-4 -6zM2312 1009.5q0 -14.5 4 -10.5t4 10.5t-4 10.5t-4 -10.5zM2322.5 933q-0.5 -5 4.5 -5q4 0 4 5t-4 5t-4.5 -5z" />
<glyph unicode=")" horiz-adv-x="3289" d="M18 924q0 109 80 270q0 2 41 119q29 84 64 117q29 29 61 34q96 25 191 49q137 33 219 25q2 0 21.5 8t29.5 8l96 -8l244 4l639 11l919 -43q86 0 146 -11l227 -8q8 0 51 -16q51 -20 76 -27q55 -16 99 -78q18 -25 34.5 -97.5t16.5 -121.5v-239q0 -10 3 -76t3 -76 q0 -37 -21 -156q-23 -135 -42 -157.5t-72.5 -48t-69.5 -25.5q2 0 -43 -8q-37 -6 -57 0l-269 -25l-147 -18l-41 2l-745 -27q-57 0 -91 2q-14 14 -20 15q-8 0 -15.5 -8.5t-15.5 -8.5t-7 5t-7 5t-81 -5t-81 -5q-6 0 -48 5t-50 5l-205 4h-31q-23 2 -33 3h-59h-59t-27.5 7t-29 7 t-16.5 2t-15 2l-361 33q-8 0 -12 -2t-12 -2t-12.5 2t-11.5 2t-28 2h-26l-105 24q-14 0 -64 28t-67 50q-12 14 -32.5 82t-36.5 96q-94 154 -95 269zM59 942q0 -84 29 -168q16 -25 43 -67q18 -35 42 -106t37 -96.5t49 -45t60 -19.5q12 0 23 15q-59 12 -111 108q-43 82 -43 142 q0 51 27 51q31 0 51 -41q8 -55 45 -152q16 -25 56 -51q47 -33 55 -41l-19 -45q29 6 46 6h88q16 0 37.5 -4t25.5 -4l293 -37l428 -31q-25 27 -107 29q-70 4 -86 51q8 4 86 31q37 10 72 22q-162 -25 -213 -18q-78 0 -105.5 45t-58.5 168q-6 27 -14 68q-14 72 -14 139 q0 10 3 55t5 60q4 111 69 268q23 57 29 72q20 41 40 52t58 11q49 0 64 2q-33 23 -16 49q10 -6 30 0q27 8 32 8t15.5 3.5t18.5 3.5h31q20 2 28 2h576h11h11t33 4t33 4t17 -8.5t18 -8.5h112l377 -43q29 0 33 -16t14 -43q80 16 78 16q10 0 20.5 -6t16.5 -8q16 -2 47 -6 q78 -20 119 -172q16 -57 32 -172q12 -96 13 -119q0 -59 -41 -205q-53 -186 -117 -186h-299l39 -25q6 8 12 9q8 0 14.5 -12.5t16.5 -12.5q8 0 6 4t6 4t35 -31q-25 -29 -33 -28h-125q-47 0 -170 -13q-6 0 -18 -11t-21 -11q-10 0 -15 4t-7 4q0 -8 -8 -22h362q2 0 6 2q-4 2 -6 6 h4q63 -8 82 -8l125 22q8 0 57.5 5t57.5 5q37 0 45 3.5t74 3.5q8 0 24.5 5t24.5 5q68 0 86 20q-4 6 -25.5 25.5t-21.5 23.5q10 18 67 133q43 86 109 179l18 -15v-55q-2 -51 -49 -170q-37 -55 -86 -139l51 24q63 35 86 129q8 59 17 119l14 248q0 137 -29 356q-6 41 -28 70 q-14 20 -70 43q94 -205 94 -283q0 -29 -16 -47l-166 312q0 16 12 32q-12 4 -41.5 15.5t-40.5 11.5h-55q-20 0 -104 6h55q43 -4 -82 -4l-49 16q-123 10 -471 29q-12 12 -31 12q-109 -4 -315 -2q-145 2 -334 6q-176 4 -164 5l-225 -23q-8 0 -12.5 5t-12.5 5h-82q-74 -2 -82 -2 q-53 0 -104 -16q-18 0 -44 -4t-34 -4t-39 4t-37 4l-350 -45l35 -29q0 -4 -3 -14.5t-3 -14.5q-55 0 -99.5 -59t-52.5 -131q-6 -47 -28 -47h-27q-23 0 -23 51t41 129q33 41 86 107h-28q-12 2 -49 -28t-48.5 -49.5t-22.5 -75.5t-22 -77q-86 -172 -86 -260zM362 430l21 10l-4 13 l-17 -11v-12zM928 811q0 -6 10 -27q-2 -61 27 -151q25 -76 51 -121q43 -12 80 -12q70 0 219 49q33 10 82 38.5t47 45.5l-27 203v143l47 268q-16 63 -229 113q-16 14 -29 14q-127 0 -154.5 -11t-41.5 -50q-82 -221 -82 -291v-211zM1264 436q2 0 7 -2t14 -2t19.5 -8t18.5 -8 l240 16q2 0 20 -14q18 4 59 2q55 -4 48 -4q45 0 52 8t17 82q-14 10 -39 10q-8 0 -52 -8t-52 -8l-21 8zM1284 1583l526 248v-244zM1290 1569h500h-500zM1296 266l527 -248v244zM1303 281h499h-499zM1303 502q2 -6 83.5 11t81.5 13l490 37l299 -37q8 0 13 4.5t14 4.5 q10 0 24 -8.5t23 -8.5l30 -8q-8 18 -24 29q-23 -6 -51 8q-45 27 -45 92v623q0 8 20 57q-2 4 -31 4l-153 -16l-609 22q39 -51 39 -61q0 -23 -28 -189q-10 -70 -11 -159l27 -314q0 -12 -94 -59q-49 -23 -98 -45zM1303 1421q49 -31 51 -30q8 0 6 4t8 4l391 -49q-4 35 -20 92 q-20 -8 -72 -8q2 0 -43 4q-35 2 -47 -2q-2 2 -3 8t-11 6q4 0 -88 -6q-84 -8 -121 -4q-6 -8 -11.5 -15.5t-15.5 -7.5t-16 2t-8 2zM1358 371v14h33v-14h-33zM1397 369q20 -4 137 -4l555 2q0 4 -14 22q-14 -4 -44 -8t-44 -8l-13 16l-274 2q-8 0 -24.5 -5t-26.5 -5q-8 0 -25 2 h-27q-27 0 -98 4q-51 2 -86 0q-6 -6 -16 -18zM1794 1413q0 -12 8 -37q10 -37 25 -37q10 0 17 5.5t9 5.5q-6 39 -26 92h-25q0 -4 -4 -10.5t-4 -18.5zM1798 449q0 -20 12 -33h29q4 33 16 90l-16 18h-31q0 -10 -5 -36.5t-5 -38.5zM1874 1403q14 -39 20.5 -50.5t24.5 -13.5 l160 27q55 -16 88 -16q8 0 5 8t5 8h80v49l-375 27zM1882 416q8 2 211 2q14 0 41 11t33 11q8 0 19.5 -2t19.5 -2q41 0 51 6v58h-129l-213 26q-10 0 -21.5 -17t-11.5 -32v-61zM1997 1581l528 246v-244zM1997 1581l528 246v-244zM2009 268l526 -245v243zM2009 268l526 -245v243 zM2265 668q0 -12 7 -34t10.5 -30t17.5 -10l207 -59l135 16q78 0 125 166q35 123 35 225q0 94 -21 193q-25 117 -67 159q-16 16 -56.5 36t-52.5 20l-160 -19q-47 0 -137 -37q-14 -6 -28.5 -28.5t-14.5 -40.5v-557zM2292 453q8 -12 22 -13q10 0 28.5 11.5t22.5 11.5 q-12 -2 -28 6q-25 10 -29 10q-6 -4 -16 -26zM2300 1374q33 21 49 21q-12 0 -12 20h-37v-41zM2480 1362h33v16h-33v-16z" />
<glyph unicode="*" horiz-adv-x="2795" d="M6 190v1006l19 18h104l25 -18v-424h192v471l19 23h333v207l19 22h457v59h-293l-19 19v104l19 19h739l18 -19v-104l-18 -19h-293v-59h545l24 -22v-207h277l22 -23v-207h117v236l19 18h264q20 0 43.5 -11t44 -28.5t34 -38t13.5 -41.5v-1081q0 -16 -12.5 -36.5t-29.5 -38 t-37.5 -30t-39.5 -12.5h-280l-19 19v233h-117v-352l-22 -16h-1169l-271 276h-381l-6 4v484h-192v-431l-25 -16h-104zM494 279h305l286 -281h963v369h387l25 -17v-229h110l6 6l7 10v987q0 4 -6.5 11.5t-10.5 7.5h-106v-236l-25 -16h-387v229h-281l-18 17v206h-903v-206 l-25 -17h-327v-841z" />
<glyph unicode="+" horiz-adv-x="681" d="M6 571q0 47 18.5 86t67.5 62q4 0 8 2q2 2 6 4h199l10 10l-10 8q-59 4 -112.5 15.5t-93.5 38t-63.5 69.5t-23.5 111q0 100 56.5 168.5t156.5 68.5h49q4 0 23.5 -3t26.5 -3q4 0 9 -1t9 -1q6 -2 12 -2l45 -45v-192q0 -8 3.5 -27.5t11.5 -26.5l14 5q0 35 -2 71.5t12 71.5 q27 66 87.5 109.5t131.5 43.5q45 0 91.5 -18t83 -50t60 -74t23.5 -91q0 -57 -21.5 -86t-57 -40t-78.5 -10t-86 3q-4 0 -22.5 -5t-22.5 -9q-4 0 -12.5 -5.5t-12.5 -9.5l14 -6q43 -6 90.5 -12t88.5 -23.5t72.5 -48.5t41.5 -84v-55q0 -158 -143 -236q-4 -4 -19.5 -10t-19.5 -10 q-2 0 -10 -4q-4 -2 -6 -2h-103q-2 0 -6 2q-8 4 -10 4q-29 12 -45.5 26.5t-23.5 33t-8 43t-1 55.5q0 27 4 50t4 48q0 16 -4 34.5t-14 24.5l-6 -4q0 -78 -15.5 -135t-62.5 -117q-31 -37 -63.5 -55.5t-82.5 -18.5q-59 0 -103 26t-85 63t-60.5 73.5t-19.5 89.5zM86 575 q0 -29 18.5 -59.5t46 -57t58.5 -44t55 -17.5q35 0 62.5 23.5t47 57.5t30 72t10.5 66v29l-4 4q-4 2 -9.5 4t-11.5 6l-14 7q-4 0 -15.5 -8.5t-15.5 -8.5q-2 0 -5 -1t-7 -1q-4 -2 -8 -2h-179q-27 0 -43 -21.5t-16 -48.5zM92 963q0 -41 22.5 -67t55.5 -41t71 -21.5t68 -6.5h15 l20 31l-20 55v197l-9 14l-16 4t-16.5 4.5t-12.5 2.5h-30q-18 0 -48 -4.5t-47 -20.5q-27 -27 -40 -68.5t-13 -78.5zM166 195q0 23 14.5 32t30.5 9q14 0 17 -2.5t12 -14.5l213 -307l6 -4h4l6 4l213 307q8 12 11 14.5t18 2.5q16 0 30.5 -9.5t14.5 -31.5q0 -14 -4 -25l-265 -377 h-53l-264 377q-4 10 -4 25zM166 1319q0 14 4 24l264 375h53l265 -375q4 -10 4 -24q0 -35 -45 -35q-14 0 -17.5 2t-11.5 12l-213 301l-6 7h-4l-6 -7l-213 -301q-8 -10 -11.5 -12t-17.5 -2q-18 0 -31.5 8.5t-13.5 26.5zM508 977q0 -4 3 -22.5t3 -26.5q0 -10 4 -25.5t21 -15.5 q2 0 14 5t27.5 12t29 14.5t17.5 9.5h164q18 0 31.5 16.5t13.5 32.5q0 27 -18.5 55.5t-45.5 51t-57.5 37t-57.5 14.5q-29 0 -55.5 -14.5t-48 -37t-33.5 -51t-12 -55.5zM573 705q0 -4 9.5 -19.5t9.5 -19.5q8 -23 9 -32t1 -28q0 -35 -5 -64.5t-5 -60.5q0 -33 9 -53t50 -20 q35 0 68 15t57.5 42t39.5 60.5t15 70.5q0 43 -24.5 69.5t-61 42t-78.5 21.5t-75 6q-8 0 -13.5 -10t-5.5 -20z" />
<glyph unicode="," horiz-adv-x="1845" d="M0 217v993q0 39 20.5 79t54.5 72t74.5 51.5t81.5 19.5h1379q37 0 76.5 -17.5t74.5 -46.5t57.5 -65.5t22.5 -75.5v-1026q0 -31 -19.5 -66t-48 -63.5t-63.5 -48t-65 -19.5h-1440q-8 0 -15 2q-12 2 -18 6q-29 8 -59.5 28.5t-55 48.5t-41 60.5t-16.5 67.5zM106 209 q0 -31 31 -59.5t60 -38.5q6 -4 18 -6.5t16 -2.5h1379q25 0 49 12.5t42.5 33t30 45t11.5 49.5v952q0 20 -10.5 43t-26.5 42t-36.5 32.5t-43.5 13.5h-1411q-14 0 -32.5 -11t-36 -26.5t-29 -35t-11.5 -33.5v-1010zM584 735v238h164v-29h-123v-65h106v-41h-110v-103h-37z M698 520q0 37 16.5 69t43 54.5t60.5 35.5t69 13q31 0 46 -20.5t21.5 -49t7.5 -58t1 -48.5v-45t-6.5 -58.5t-20.5 -51t-45 -21.5q-37 0 -72 14.5t-61.5 39t-43 57t-16.5 69.5zM772 854q0 53 29.5 90t85.5 37q57 0 82.5 -39t25.5 -88q0 -55 -24.5 -87t-83.5 -32 q-115 0 -115 119zM780 516q0 -35 24.5 -64.5t65.5 -29.5q8 0 12.5 13.5t5.5 30.5t0 31.5t-1 18.5t1 19.5t0 32t-6 29.5t-16 13q-37 0 -61.5 -29.5t-24.5 -64.5zM813 854q0 -41 13.5 -63.5t56.5 -22.5q41 0 60.5 22.5t19.5 63.5q0 51 -43 86h-33q-43 0 -58.5 -21.5 t-15.5 -64.5zM1028 854q0 49 31 88t84 39q41 0 71.5 -21.5t30.5 -68.5q-14 0 -21 5t-13.5 12t-12.5 15.5t-14 16.5h-37q-47 0 -62.5 -19.5t-15.5 -66.5q0 -37 16.5 -61.5t57.5 -24.5q18 0 36.5 5t28.5 28q2 6 -2 22q-2 8 -6 15h-57v28h106v-135q-16 0 -20 10.5t-17 10.5 q-18 0 -32.5 -8.5t-32.5 -8.5q-55 0 -87 32t-32 87zM1044 516q0 8 4.5 13.5t8.5 10.5t8 12t4 21q0 12 -8 10.5t-8 14.5q0 6 13 23.5t19 29.5q0 4 6.5 6t10.5 2q2 0 10 -12t16.5 -27.5t14.5 -27.5t8 -14q-4 -10 -8 -13.5t-7 -3.5t-7.5 2t-10.5 2q0 -16 -4 -24.5t-4 -14.5 t6 -13t27 -17q-4 -10 -11.5 -20.5t-13.5 -20.5l33 -25v-4v-4l-16 -16q-4 0 -12.5 2t-12.5 6q0 -16 -5 -28.5t-24 -12.5h-4q-4 12 -14 32.5t-10 36.5q0 8 5 12.5t11 6.5t11 4t5 10q0 12 -6 16.5t-14 6.5t-14.5 5t-6.5 13z" />
<glyph unicode="-" d="M10 1264q16 43 78 100q59 51 117 102q4 88 31 174q35 117 86 129q20 -10 71 -55q-16 -20 -31 -76q-18 -72 -28 -102q47 -29 231 -29v-137q-27 4 -49 4q-94 0 -94 -63q0 -43 14.5 -134.5t14.5 -148.5q25 -14 100 -41q66 -21 78 -35q4 -74 -80 -108q-158 -68 -187 -88v-140 q53 -61 205 -61v-137q-123 -14 -123 -137q0 -20 4.5 -67.5t4.5 -70.5q0 -33 -7 -55h-110v227q-25 31 -53 31q-43 0 -107 -76h-106q0 20 -15.5 68.5t-15.5 64.5l178 111v168q-16 20 -63 37q-63 25 -86 39q86 111 165.5 149.5t90 51t10.5 133.5q0 117 -80 202q-41 6 -143 -112 q-66 82 -101 82zM748 963q0 274 38 475q78 403 289 403q158 0 369 -153q170 -125 209 -197q84 -156 110 -287q23 -107 23 -297q0 -348 -244 -626q-236 -270 -512 -271q-172 0 -244 475q-39 250 -38 478zM897 963q0 -266 10 -373q27 -229 115 -395l74 -43q68 -2 266 131 q135 88 227 313q78 193 78 330q0 225 -168 481q-190 289 -424 289q-106 0 -151 -297q-27 -186 -27 -436z" />
<glyph unicode="." horiz-adv-x="1576" d="M-8 25h63v1638q0 10 15.5 30.5t19.5 26.5l8 6h754l49 -40v-549q53 0 101.5 -17.5t85 -51.5t58 -81t21.5 -104q0 -47 -14 -81t-20 -81l-41 -254v-49q0 -78 37.5 -123t123.5 -45q63 0 93 36t40.5 87t8.5 107.5t-2 99.5q0 111 -8.5 222t-41.5 222q0 6 -8 27.5t-18 49 t-20.5 55.5l-16.5 44q0 2 -5 13.5t-12.5 24.5t-12.5 24.5t-5 13.5q-2 6 -9 29.5t-14.5 51t-15.5 51.5l-10 30q-31 70 -84 127t-127 84v92h35q33 -6 61 -12q25 -4 51.5 -11.5t43.5 -11.5l20 -8q8 -4 25.5 -17.5t37 -28t36 -26.5t22.5 -18q4 -6 16.5 -18.5t18.5 -16.5 q6 -8 17 -28.5t24.5 -43t25 -42t17.5 -27.5l8 -15v-6l-72 -78v-14q47 -92 78 -191.5t48.5 -203t23.5 -208t6 -206.5q0 -70 -4 -133.5t-31 -126.5q-53 -59 -110.5 -93t-137.5 -34q-63 0 -116.5 22.5t-91.5 61.5t-59.5 91t-21.5 114v55l43 260q10 33 26.5 76t16.5 80 q0 74 -40.5 93t-100.5 19v-970h64v-99h-973v99zM154 1108h661v528h-661v-528z" />
<glyph unicode="/" horiz-adv-x="1497" d="M16 991h187q2 0 18.5 32t35.5 72t37.5 75.5t24.5 41.5q39 43 86.5 87t99.5 78t110.5 55.5t119.5 21.5h21q6 -23 7 -34t1 -34v-18q-74 -16 -147.5 -47t-135 -78t-106.5 -109.5t-64 -142.5h195l-256 -315zM319 432v4l70 53q2 2 10.5 -8t19.5 -23.5t22.5 -26.5t19.5 -19 q86 -70 174 -105t199 -35q37 0 72.5 2t74.5 15q-8 16 -21.5 33.5t-25.5 34t-21.5 35t-9.5 36.5h47l348 -39q-18 -29 -32.5 -72t-30.5 -92t-35.5 -100t-48.5 -94l-8 8l-101 156q-4 8 -12 8q-53 0 -105.5 -11.5t-107.5 -11.5q-23 -6 -66.5 0t-97 21.5t-110 40t-103.5 54.5 t-80.5 64.5t-40.5 71.5zM535 584l235 598q0 4 4 10q4 12 12 12h97l245 -620h-94q-10 0 -18 20.5t-16.5 48t-16.5 56t-18 45.5q0 2 -4 6q-2 2 -5 2h-256q-12 0 -21 -27.5t-17.5 -61.5t-17.5 -61.5t-21 -27.5h-88zM731 848h199l-96 272zM1034 1446l381 -47l8 -8l-116 -123v-8 q78 -100 125 -209t47 -238q0 -10 -2 -50t-8.5 -83t-18.5 -78t-31 -35q-4 0 -16 3t-24.5 9.5t-22.5 14.5t-10 16q0 49 15 101.5t15 107.5q0 49 -7 100.5t-24.5 100.5t-44 92t-63.5 78l-143 -143z" />
<glyph unicode="0" horiz-adv-x="1576" d="M-4 135q0 31 20.5 46.5t45 25.5t45 22t20.5 37q0 16 -10.5 21.5t-28.5 5.5t-27.5 -7t-16.5 -16.5t-16.5 -16.5t-27.5 -7q0 39 26.5 59.5t61.5 20.5q27 0 53.5 -15.5t26.5 -44.5q0 -27 -16.5 -40t-38 -21t-43 -18.5t-29.5 -30.5h127v-21h-172zM55 803v293h258v-242h291 q45 0 70.5 -34t38 -78t15.5 -89t3 -69h64l-215 -219l-213 219h94v96h-285q-16 0 -37.5 13.5t-40 32.5t-31 39.5t-12.5 37.5zM55 1354v43q0 14 27 24.5t58.5 16.5t59 9t31.5 3v-299h-92v203h-84zM152 428v207h24v-207h-24zM358 98v54l158 157h123v-153h53v-58h-53v-90h-102 v90h-179zM430 158h102v104h-8l-41 -41q-16 -16 -32.5 -33.5t-20.5 -29.5zM520 1231q18 0 27.5 -7t17.5 -16.5t16.5 -16.5t26.5 -7q16 0 33.5 9t17.5 26q0 25 -22.5 30.5t-40.5 5.5v15q16 4 35.5 9t19.5 28q0 18 -14 19t-25 1q-16 0 -24 -6t-15.5 -14.5t-15.5 -14.5t-25 -6 q0 41 24 52.5t56 11.5q8 0 23.5 -1t29 -6.5t21.5 -14.5t6 -25q0 -4 -8 -16.5t-8 -16.5v-2q0 -12 12 -20.5t12 -24.5q0 -33 -27.5 -48.5t-56.5 -15.5q-35 0 -65.5 15.5t-30.5 56.5zM588 889v190h24v-190h-24zM764 743v31h225v305h39v-301h397v301h29v-336h-426v-307h-39v307 h-225zM922 219q0 39 22.5 73t69.5 34q33 0 54.5 -13.5t21.5 -46.5q-25 0 -35.5 13.5t-32.5 13.5q-29 0 -44 -8.5t-15 -38.5q14 0 28.5 4t30.5 4q27 0 50.5 -17.5t23.5 -46.5q0 -33 -28 -48t-54 -15q-41 0 -66.5 22.5t-25.5 69.5zM954 1206h15q23 0 35 -11t32 -11q18 0 36 11 t18 28q0 23 -17.5 32t-36.5 9q-14 0 -26.5 -4.5t-28.5 -4.5h-18q0 10 5 40t9 38q0 2 4 10q2 4 4 7h127v-27h-102l-4 -12q-4 -12 -5 -17v-12q16 0 38 1t42.5 -4t33.5 -17.5t13 -38.5q0 -35 -30.5 -49.5t-61.5 -14.5q-27 0 -50 9.5t-32 37.5zM969 190q0 -25 10 -31.5t35 -6.5 q16 0 29.5 10t13.5 28q0 25 -15.5 29t-31.5 4h-20.5t-20.5 -8v-25zM1343 1167v191h150q25 0 37 -18.5t12 -36.5q0 -16 -3 -23.5t-21 -15.5l16 -17l16 -80h-41q0 6 -6 32t-10 32q0 2 -4 6l-2 2h-109v-72h-35zM1374 1278h113q10 0 12 9t2 16q0 10 -6 20t-16 10h-105v-55z" />
<glyph unicode="1" horiz-adv-x="2498" d="M18 866q0 311 19 426q39 272 184 336q201 88 264 88h1493q188 0 357 -198q154 -180 153 -332v-666q0 -158 -171 -331t-312 -173h-1556q-39 0 -107 29q-47 20 -96 43q-164 66 -211 377q-16 115 -17 401z" />
<glyph unicode="2" horiz-adv-x="1820" d="M18 143l611 164q63 1 86 -28q0 -18 -13.5 -53.5t-25.5 -47.5q-53 -14 -326 -100q-205 -66 -225 -64h-90q0 6 -8.5 48t-8.5 81zM18 416l517 162h110q0 -12 8.5 -54.5t8.5 -52.5l-535 -184h-92q0 6 -8.5 48t-8.5 81zM18 688l590 184l21 -129l-592 -184q0 8 -9.5 56.5 t-9.5 72.5zM18 983l625 184q0 -12 9.5 -54t9.5 -52l-607 -209q-37 51 -37 131zM18 1300l676 162v-129l-549 -162h-110zM698 795q0 207 2 233q10 156 70 361q6 18 35 58t51 54q14 8 41 10q18 2 51 0q43 -2 47 -2q262 0 490 -141q321 -199 321 -584q0 -395 -352 -594 q-236 -133 -475 -133q-176 0 -242 269q-39 164 -39 469zM801 784q0 -190 10 -284q20 -150 78 -283h258q78 0 207 74q143 84 235 203q115 145 115 301q0 303 -311 477q-231 129 -453 129q-37 0 -51 -6q-66 -174 -82 -346q-6 -74 -6 -265z" />
<glyph unicode="3" horiz-adv-x="2021" d="M14 1237q0 43 13 68h669l-20 -142h-639q-23 31 -23 74zM25 104v105q33 29 147 29h467q115 0 115 -86v-64h-717zM27 446l8 148h641q4 -13 20 -148h-669zM27 942h641v-137h-633zM27 1518v159h637q24 3 90 -28q-10 -45 -31 -131h-696zM811 891q0 231 35 477q39 266 90 332 q27 35 211 35q145 0 209 -17q53 -14 104 -30q197 -37 371 -296.5t174 -521.5q0 -131 -53.5 -279.5t-136.5 -260.5q-156 -209 -326 -267q-72 -23 -201 -43q-102 -14 -137 -14q-133 0 -88 -2q-82 4 -117 33q-18 16 -35 86q-14 59 -28 119q-27 109 -49 319q-23 201 -23 330z M915 883q0 -139 35 -389q37 -268 72 -320q25 -2 78 -10q47 -8 57 -8q125 0 264 45q176 59 260 164q220 274 220 505q0 233 -179 451q-168 201 -348 231q-190 33 -231 33q-57 0 -137 -35q-18 -23 -54 -266q-37 -256 -37 -401z" />
<glyph unicode="4" horiz-adv-x="2037" d="M18 913q0 446 318 682q238 176 518 177q172 0 236 -52q94 -270 114 -452q8 -78 8 -371q0 -340 -6 -397q-14 -123 -112 -455q-88 -35 -205 -35t-252 35q-201 59 -401 320q-217 281 -218 548zM137 897q0 -332 297 -532q233 -158 469 -158q66 0 90 20q74 109 92 332 q9 88 9 338q0 254 -9 342q-20 211 -94 363q-31 6 -71 6q-258 0 -490 -162q-293 -203 -293 -549zM1280 1653q2 35 12 49h707v-162h-711q0 8 -4 49t-4 64zM1288 154l25 135h657q51 -72 51 -135h-733zM1335 1313h686q0 -106 -26 -146h-609q-14 23 -32.5 76t-18.5 70zM1360 471 v117h661q0 -16 -11 -60.5t-11 -56.5h-639zM1360 831l24 136h639q-12 -51 -24 -101q-14 -37 -60 -35h-579z" />
<glyph unicode="5" horiz-adv-x="1880" d="M25 166l630 196q23 1 70 -73q0 -59 -20 -82q-530 -176 -558 -174l-106 -25q0 8 -8 59.5t-8 98.5zM25 494l534 194h113q0 -14 9 -64.5t9 -64.5l-553 -221h-96q0 8 -8 58t-8 98zM25 821l610 223l20 -155l-612 -223q0 10 -9 67.5t-9 87.5zM25 1178l645 221q0 -14 10 -64.5 t10 -64.5l-627 -250q-39 61 -38 158zM25 1561l700 194v-158l-575 -170l-107 -24zM727 950q0 250 2 281q12 186 74 436q4 23 33 66q31 51 55 67q14 12 41 15q20 2 53 0q45 -2 49 -3q270 0 506 -172q332 -237 332 -704q0 -334 -182 -555q-141 -170 -375 -256 q-166 -63 -297 -64q-184 0 -250 324q-41 197 -41 565zM831 936q0 -227 15 -342q18 -180 80 -340q80 -33 127 -33q53 0 139 33q80 0 213 88q147 100 244 246q116 174 116 362q0 254 -159 436q-127 145 -336 230q-166 66 -293 65q-39 0 -53 -10q-66 -209 -84 -414 q-8 -90 -9 -321z" />
<glyph unicode="6" horiz-adv-x="5591" d="M0 729q0 98 31.5 218t95 225.5t156 177t213.5 71.5h4595q88 -6 159 -43t126 -93t95 -127t65.5 -147.5t38 -152.5t12.5 -141q2 -92 -24.5 -200.5t-86 -209t-155 -180.5t-230.5 -115h-4571q-143 18 -242.5 94t-162 180.5t-89 222.5t-26.5 220z" />
<glyph unicode="7" horiz-adv-x="3653" d="M12 932q0 35 60 94h1460q80 -41 80 -100l-799 -699zM1952 1133q4 25 8 57q215 174 428 242q174 55 412 55q195 0 399 -62q258 -77 446 -233q-6 -113 -155 -371q-121 -195 -244 -391q-14 -10 -31 -18q-27 -14 -65 -15q-27 0 -59.5 24.5t-57.5 24.5q-94 -86 -94 -159 q0 -23 12 -67t12 -68q0 -68 -71 -142h-135q-49 37 -72 166q-33 197 -37 213q-33 104 -115 105q-27 0 -80 -24t-71 -24zM2097 1137l297 -521h88v86q-70 139 -137 279q-98 190 -164 215zM2365 1204q152 -270 269 -532q47 -10 188 -13q135 -2 199 -18q98 -27 129 -98l375 596 q-233 119 -351 159q-184 68 -374 68q-55 0 -197 -25q-156 -27 -238 -53v-84zM2730 539q55 -172 111 -191q35 72 34 141q0 32 -8 50h-137zM3017 748q23 25 45 51q31 33 45 32l84 -43q-33 -74 -60 -100q-18 0 -57 20.5t-57 39.5zM3117 885q27 92 27 114h110q0 -12 -11 -57 t-11 -57h-115zM3213 1079l27 113q18 0 58.5 -18.5t58.5 -36.5l-35 -95q-10 0 -53 18.5t-56 18.5z" />
<glyph unicode="8" horiz-adv-x="2162" d="M29 1294q162 205 489 357q307 141 533 141q250 0 379 -14q172 -37 284 -88q148 -70 445 -263l-662 -1144q-74 135 -385 219l-96 -19q0 -90 71 -106q104 -25 134 -64q39 -51 39 -108q0 -25 -7 -60q-23 -135 -143 -129q-158 8 -168 99q-14 143 16 184q12 16 13 35 q0 45 -78 104q-12 8 -27 8q-33 0 -96 -57q-74 -66 -96 -76l-611 949zM221 1276l443 -797q155 68 184 142l-346 858l-156 -74q-94 -51 -125 -129zM631 1532l344 -926q68 14 112 15q29 0 62 -8.5t47 -8.5q27 0 98 135q70 129 95 115q27 -10 53 -20q8 -2 8 -29 q0 -43 -27.5 -122t-27.5 -103q0 -20 10 -33q27 -35 74 -53q41 -18 61 -13l463 862l-205 138q-18 -14 -37.5 -56.5t-42.5 -42.5q-6 0 -16 4q-61 20 -78 31q-31 18 -31 47q0 20 14.5 51t14.5 39t-6 13q-80 70 -203 69q-279 0 -412 -10q-266 -23 -370 -94zM1413 977 q0 41 50 167t89 177q4 6 11 6q18 0 48.5 -33t30.5 -53l-126 -321q-12 0 -31 10q-31 20 -68 35q-4 2 -4 12z" />
<glyph unicode="9" horiz-adv-x="1859" d="M23 741q0 416 264 658q256 236 674 235q410 0 651 -251.5t241 -661.5q0 -391 -301 -643q-274 -229 -634 -230q-367 0 -631 263.5t-264 629.5zM154 764q0 -317 206 -543q221 -242 578 -241q313 0 559 208q268 232 268 576q0 156 -88 344q-76 160 -311 315 q-190 125 -405 125q-379 0 -615 -248q-193 -203 -192 -536z" />
<glyph unicode=":" horiz-adv-x="2701" d="M-2 772q35 119 67.5 218.5t67.5 201.5l8 33h11q16 -8 58 -26.5t90 -38t90 -37t59 -25.5q59 -23 129.5 -49.5t130.5 -65.5q2 -8 9 -23.5t13 -33t12.5 -30.5t10.5 -17q0 -8 8 -17q4 -4 10 -6h270v191h-153v135h432v-135h-143v-191h331l101 -104q45 18 84 34 q35 14 70.5 27.5t60.5 22.5l18 10l639 252q20 8 31.5 9t40.5 1q10 0 26.5 -4t33 -13.5t27.5 -22.5t11 -34v-135h-117v51h-34l-56 -61q-4 -4 -12 -17.5t-18.5 -30t-19.5 -29.5t-13 -17q-10 -14 -40 -56.5t-72 -100.5t-93 -129l-102 -142q-121 -168 -269 -371h-1233v524 q-4 2 -10 6l-8 4t-8 2q-129 53 -256 108.5t-256 111.5q-8 0 -19.5 10t-17.5 10zM160 856l368 -156l56 166v23q-90 31 -183.5 73t-169.5 72h-8l-10 -10q-6 -16 -14.5 -37.5t-15.5 -45t-14 -46.5t-9 -39zM709 143h1044q35 47 77 110.5t77 111.5q6 10 34.5 48t66.5 88t80 107.5 t78 107.5t59.5 86t23.5 44l-623 -242q-6 0 -21.5 -5t-23.5 -5q-16 0 -31.5 18.5t-31 40t-30.5 40t-32 18.5h-747v-568zM2509 469q0 47 23.5 103.5t29.5 127.5h55q0 -37 8.5 -66.5t18.5 -57t18.5 -54t8.5 -53.5q0 -25 -5.5 -58.5t-15.5 -65.5t-25.5 -54.5t-35.5 -22.5 t-36 22.5t-25 54.5t-14 65.5t-5 58.5z" />
<glyph unicode=";" horiz-adv-x="2387" d="M4 768l4 172h441l4 -176zM23 1550l100 158q16 -10 54 -31.5t86 -48t101.5 -55.5t100.5 -53.5t80 -44t43 -25.5l-96 -168q-156 92 -248 144.5t-142 80.5q-57 33 -79 43zM27 170l487 172l88 -143l-524 -160zM539 801q0 41 3 102.5t14 129t31.5 134t54.5 120.5t84 88t122 34 q63 0 110.5 -34t79 -87t51 -119.5t30.5 -133t14.5 -125t3.5 -95.5q0 -43 -4.5 -103.5t-17.5 -127t-34.5 -132t-56.5 -116.5t-84 -84t-115 -33t-113.5 32t-79.5 83t-50.5 114.5t-27.5 128t-12 124t-3 100.5zM691 707.5q-3 -60.5 6.5 -119t36 -102.5t87.5 -44q57 0 87 47.5 t43.5 108.5t14.5 123.5t1 93.5v93.5t-11.5 125t-40 109.5t-86.5 47q-63 0 -92.5 -50t-39 -116t-6.5 -129t3 -92q0 -35 -3 -95.5zM1217 801q0 43 4 103.5t15 127t31.5 131t54.5 116.5t82 84t116 32q66 0 113.5 -33t80.5 -85t52.5 -116.5t30.5 -129t14.5 -122t3.5 -94.5 q0 -41 -4.5 -100.5t-15.5 -126t-31.5 -131t-54.5 -116.5t-83 -85t-115 -33q-68 0 -114.5 31t-79.5 81t-52.5 112.5t-30.5 127t-14 124t-3 102.5zM1376 704.5q-2 -59.5 7.5 -118t37 -101.5t84.5 -43q61 0 90 48.5t39.5 111t9 126t-1.5 93.5q0 23 2.5 60t1.5 78.5t-6.5 83.5 t-19.5 77t-37.5 56.5t-62.5 21.5q-61 0 -91 -50t-41.5 -115.5t-10.5 -133t1 -100.5q0 -35 -2 -94.5zM1757 1444l447 276q2 2 17 -15t31.5 -41t30 -46.5t13.5 -28.5q-14 -16 -66 -53q-43 -31 -130 -87t-238 -146zM1804 223l66 154l475 -211l-66 -139zM1905 764l6 176l461 -6 l4 -162z" />
<glyph unicode="=" horiz-adv-x="1607" d="M0 379v584q0 55 23.5 99t62.5 76.5t87 51t97 20.5q2 2 10.5 22.5t20.5 43t26.5 41t26.5 18.5h4l56 -55l-45 -70h397q-10 29 -31.5 52.5t-40.5 44.5v6l43 59h4h4q25 -10 50.5 -39.5t35.5 -42.5q4 6 18.5 22.5t18.5 22.5t13 6h2l59 -57q-14 -14 -29.5 -33.5t-15.5 -40.5 h395q-6 31 -29.5 55.5t-43.5 41.5v2q0 6 5 16t13 21.5t17.5 18.5t15.5 7q20 0 40.5 -20.5t37 -48t29 -54t18.5 -39.5q31 -18 66.5 -35.5t68.5 -42t54.5 -56.5t21.5 -77v-657q0 -31 -20.5 -66.5t-51.5 -66.5t-66.5 -52.5t-66.5 -21.5h-488q8 -20 11.5 -31.5t3.5 -27.5 q0 -33 -23.5 -54.5t-56.5 -21.5q-29 0 -44.5 11.5t-22.5 29.5t-8 39.5t1 42.5l-8 12h-553q-41 0 -79 24.5t-67.5 60.5t-48 79t-18.5 80zM96 356q0 -20 14.5 -42.5t35 -42t44 -33t43.5 -13.5h490l-328 672q18 10 39 19.5t41 17.5l350 -709h547q25 0 50.5 13.5t47 35t35 47 t13.5 50.5v600q0 23 -12.5 48t-32 46.5t-44 36t-49.5 14.5h-499v-182h-97v182h-551q-23 0 -46 -12t-43.5 -31.5t-34 -43t-13.5 -44.5v-629zM438 1401q31 16 62.5 22.5t64.5 6.5q14 0 35 1t21 -20q0 -14 1 -38.5t-16 -31.5q-29 -2 -62.5 -8t-62.5 -6h-6zM788 371v168h89v-168 h-89zM788 655v185h89v-185h-89zM965 1401q29 18 60.5 23.5t66.5 5.5h47q8 -4 8 -8.5v-10.5q0 -16 -2 -35.5t-15 -34.5q-23 2 -36 1t-26 -5t-27.5 -7t-36.5 -3h-5z" />
<glyph unicode="&#x3e;" horiz-adv-x="1626" d="M14 420l297 317q2 -4 15 -110q8 -74 55 -74l305 96q45 -4 84 -4q29 0 56.5 3t29.5 3l383 -78q31 -4 36 28t11 63q-166 76 -448 84l-398 -58q-12 12 -12 31l621 709q-6 20 -31 37.5t-43 15.5l280 307q25 -16 58 -53l-236 -281q35 -29 72 -65q12 -29 53 -203 q25 -94 51 -189q29 -113 37 -188q-2 -43 -4 -133q195 -113 328 -215q-20 -49 -62 -64l-264 146q-18 0 -31 -17q-37 -143 -120 -348q-16 -49 -62 -127q-41 -41 -125 -39h-30q-12 14 -13 19l152 411q0 18 -17 29q-78 33 -208 33q-102 0 -259 -41q-18 -12 -16 -41l170 -397 q-20 -12 -55 -13q-76 0 -94 13q-37 29 -88 143q-47 104 -146 346q-49 0 -131 -59q-70 -53 -139 -105q-49 12 -62 68zM317 797v41q-4 27 33 225q43 231 90 309q31 49 121 88q115 49 137 68q12 8 13 49q0 14 -9 22q-23 25 -45 48q-59 68 -59 168q0 68 56.5 132t131.5 64 q90 0 138 -69q41 -58 41 -138q0 -82 -52 -155l-30 -27q-23 -20 -23 -35q0 -47 94 -100z" />
<glyph unicode="?" horiz-adv-x="3051" d="M14 82q0 -33 0 96l4 1350q2 37 0 84q-2 53 -2 63q0 61 34 80t161 23l2771 -11q12 -6 29 -20q0 -6 6 -12q4 -35 2 -125q-4 -135 -4 -137l20 -1278l-4 -132q-2 -6 -43 -47h-2953q-18 18 -21 66zM137 127l2777 2l-8 1526h-2769v-1528z" />
<glyph unicode="@" horiz-adv-x="2752" d="M16 14v1641l2626 8q43 4 57.5 -5t36.5 -50v-1491q10 -72 -59 -92q-31 -8 -101 -7zM131 125h2495v1427h-2495v-1427zM246 1235v90h2337l6 -117zM248 1223v53l2314 -41l-672 -12q6 -12 6 -27q0 -10 -6 -39t-6 -51q47 -23 262 -98q172 -63 262 -123q-20 -41 -65 -109 l-492 215q-61 -27 -90 -114l258 -355q-37 -59 -71 -59q-41 0 -119 117q-106 160 -166 215q-111 -23 -152 -86q-29 -47 -28 -138v-45q2 -31 2 -45q0 -123 -58 -178q-51 29 -61 154q-12 172 -23 207q-35 104 -151 104q-23 0 -49 -4q-14 -2 -82 -82q-84 -102 -131 -145 q-82 -76 -142 -74q-10 14 -10 33q0 66 128 197.5t128 144.5q0 41 -45 97t-74 56l-481 -207l-26 109l481 219v111h-641zM1010 1133q23 -147 145 -228q96 -63 213 -63q127 0 244 82q152 105 172 295h-391q-236 10 -379 -9q-25 -14 -4 -77z" />
<glyph unicode="A" horiz-adv-x="2334" d="M0 143v1137q12 29 25.5 56.5t33 49t46 35t63.5 13.5h1982q20 0 46 -7.5t50.5 -22.5t46 -40t34.5 -61v-1174q0 -20 -17.5 -43t-42 -42t-50.5 -31.5t-44 -12.5h-2005q-49 16 -71.5 24.5t-36 20.5t-24.5 33.5t-36 64.5zM121 174q0 -15 16 -31q6 -4 15.5 -9t15.5 -5h1997 q12 0 25.5 13.5t13.5 23.5v1106q0 6 -9.5 18.5t-21.5 12.5h-2013q-10 0 -24.5 -19.5t-14.5 -26.5v-1083zM426 670v100h397q6 0 10.5 8t7.5 19.5t4 22.5t1 18q0 12 -2 16t-13 14q-12 8 -38.5 29t-56 44.5t-56.5 44t-39 28.5v8q0 16 18.5 42t34.5 26q12 0 26.5 -9.5t29 -21.5 t25.5 -23.5t18 -13.5q2 -4 17 -13.5t32.5 -21.5t32 -22.5t18.5 -12.5l6 -8h8h8q6 6 19.5 15.5t28 20.5t25.5 21.5t11 20.5v14l-61 168v8q14 6 29 13q12 4 24.5 9l22.5 9h8q10 0 13 -7t9 -24q0 -4 3.5 -13t8.5 -21.5t8 -22.5t3 -12q0 -4 4 -13.5t8 -21.5t9.5 -23.5t9.5 -17.5 q0 -8 4 -12q2 -4 4 -4h129q6 0 15.5 26.5t20.5 60t21.5 64.5t18.5 41h8h8q8 -4 21.5 -9t25.5 -9q14 -6 29 -13v-8l-62 -168v-8q0 -12 10.5 -24.5t22.5 -23.5t24.5 -20.5t18.5 -15.5h25q18 12 37 25q16 10 29.5 20t23.5 17q8 6 24.5 20t35 27.5t34.5 25t29 11.5h8l45 -62v-14 q-6 -4 -21.5 -13.5t-32 -21.5t-31.5 -23.5t-21 -17.5q-8 -6 -25.5 -17.5t-36 -24.5t-32 -28.5t-13.5 -29.5q0 -16 7 -34t7 -34h406v-100h-397q-4 0 -7.5 -13.5t-7.5 -30t-6 -30.5t-2 -16v-17l19.5 -13t30 -20.5t29.5 -21.5t19 -12q29 -23 61 -43.5t54 -49.5q0 -8 -6 -21 t-15.5 -25.5t-17.5 -20.5t-14 -8q-4 0 -6 2q-8 4 -11 4q-8 6 -38.5 29.5t-65.5 49t-62.5 46t-29.5 20.5h-8q-6 -6 -31 -22.5t-31 -22.5q-16 -12 -23.5 -19t-7.5 -20v-14l62 -168q0 -4 -12.5 -10t-26.5 -12.5t-28.5 -11.5t-16.5 -5h-8q-16 47 -33.5 88t-34.5 88q0 6 -5 14.5 t-11 8.5h-6l-31 -8h-84q-4 0 -15.5 -27t-23.5 -60.5t-23.5 -64.5t-13.5 -39q-6 0 -21.5 5t-30.5 11.5t-27.5 12.5t-12.5 10l61 168v14q0 16 -10 21.5t-20 17.5q-6 6 -27.5 22.5t-26.5 22.5q-18 -6 -54 -31.5t-71.5 -53t-64.5 -49t-31 -17.5q-16 4 -34.5 31.5t-18.5 43.5v9 q51 35 104.5 75.5t100.5 75.5l8 8l-4 9q-4 8 -4 14q-4 6 -5 18.5t-3 24.5t-5.5 22.5t-9.5 10.5h-397zM946 709q0 -47 17.5 -87t48 -70t71.5 -47.5t91 -17.5q43 0 82.5 17.5t70.5 47.5t49.5 70t18.5 87q0 45 -16.5 87t-45 73.5t-69.5 50t-90 18.5q-98 0 -163 -62.5 t-65 -166.5z" />
<glyph unicode="B" horiz-adv-x="1587" d="M10 328v26.5t3 42t9.5 39t18.5 17.5h186l95 -95l30 -14h17q12 0 16 9t10 21.5t16.5 22t34.5 9.5v-125h-186q-12 0 -20.5 14t-19.5 32.5t-30.5 33t-54.5 14.5q-25 0 -38 -7.5t-25.5 -16.5t-25.5 -16t-36 -7zM197 78l8 96h127q0 -6 1 -21.5t5 -32t11 -29.5t20 -13 q6 0 24.5 21.5t48 47t66.5 43.5q28 14 58 14q10 0 20 -1v264h61v1354h266v-312h310v-139h-310v-172h310v-123h-310v-155h310v-125h-310v-328h62v-264q6 0 19.5 -2t27.5 -5t27.5 -5.5t19.5 -2.5l82 -36q6 0 11 -8.5t10.5 -17.5t10.5 -16.5t11 -7.5l61 -24h15q10 0 15 11 t8 25.5t7.5 29t14.5 20.5l95 4v-90l-77 -62h-203l-94 78h-14q-35 0 -68.5 -27.5t-56.5 -50.5h-217l-78 78h-16q-35 0 -76 -27.5t-64 -50.5h-172zM1114 281v108h33q12 0 16 -7t6 -15.5t6.5 -15.5t16.5 -7q35 0 63.5 17.5t56 37t58.5 37t72 17.5q70 0 89 -19.5t19 -89.5 q-23 0 -39 5t-30.5 10.5t-30.5 10.5t-40 5q-12 0 -31 -10.5t-37.5 -25.5t-34 -30.5t-21.5 -27.5h-172z" />
<glyph unicode="C" horiz-adv-x="1968" d="M14 506q0 66 68 100q8 2 123 37l344 -92q2 0 31.5 6t58.5 6q0 -40 14 -114q-51 -29 -104 -29l-322 92q-43 0 -196 -66q-16 18 -17 60zM137 102v115q27 16 99 16q49 0 122.5 -39.5t122.5 -39.5q14 0 129 47t129 47q16 0 124 -47t122 -47q18 0 105 36q111 47 141 58 l260 -94q43 8 141 51q90 43 105 43q61 0 80 -31q2 -29 18 -82q-14 -20 -14 -33h-41q-14 0 -18.5 6.5t-18.5 6.5q-16 0 -127 -46t-127 -46q-68 0 -130.5 46t-115.5 46q-14 0 -128 -46t-130 -46q-12 0 -130 46t-134 46q-12 0 -98 -43q-96 -49 -142 -64l-254 107 q-59 -12 -90 -13zM801 512q0 16 43 96t43 97v804q0 6 -2 49.5t-2 73.5q0 229 102 230q55 0 78 -56q12 -31 18 -114q8 -76 25 -99h383v-112q-43 -14 -113 -15q-25 0 -74 2t-71 2q-106 0 -148 -40q0 -104 23 -154h383v-125h-385q-20 -27 -21 -90q0 -72 33 -103h373v-100 q-55 -29 -80 -29h-303q-23 -45 -23 -86q0 -76 43 -116.5t43 -108.5q0 -76 -61 -134t-123 -58q-78 0 -131 56t-53 130zM1327 498q4 70 4 65q70 0 80 -12l324 92q162 -12 223 -96l-16 -101q-86 45 -119 55.5t-86 10.5q-68 0 -149 -40t-93 -40h-162q-6 18 -6 50v16z" />
<glyph unicode="D" horiz-adv-x="2328" d="M6 715q0 76 21.5 156.5t62.5 149.5t103.5 116t144.5 55q160 12 283.5 21.5t234.5 15.5t220.5 10t238.5 4q121 -6 229 -6q41 0 79 1q53 1 103 1q82 0 154 -3q115 -5 202 -26.5t144 -77.5q58 -58 82 -158q18 -74 18 -178q0 -38 -2 -81q0 -55 -1 -133t-17 -152t-57 -128 t-121 -62l-424 -43q-10 0 -56 -1t-104.5 -1t-117 -1t-91.5 -1q-150 0 -276.5 1t-249.5 6t-252 16t-283 34q-66 14 -115.5 67.5t-83.5 122t-51.5 142t-17.5 133.5zM57 715q0 -51 17.5 -102.5t44.5 -94.5l17.5 17.5t25.5 13.5q2 0 4 -2q6 -6 6 -8q-2 -16 19.5 -54.5t48 -76 t49 -62t26.5 -14.5q0 -8 -1 -12.5t-9 -8.5q-2 -10 30 -16t82 -8t113.5 -3t127 -3t121 -7.5t95.5 -13.5h95q-104 4 -171 39t-105 95.5t-52 142t-14 178.5q0 72 9 152.5t39 148t85 111.5t147 44h-78q-139 0 -266 -13t-278 -30q23 8 26.5 -3t3.5 -21q-12 -8 -37.5 -36 t-50 -61.5t-42 -66.5t-13.5 -49h-10q-12 0 -22.5 2t-10.5 18q0 12 6 23.5t6 23.5v7q-33 -55 -58.5 -121t-25.5 -129zM109 705q12 4 11 20t-1 20q55 35 105 44.5t114 9.5q23 0 62.5 -1t78.5 -9.5t67.5 -28t28.5 -55.5v-11l-114 -155q-33 8 -39 10t1 -2t21.5 -9.5t20.5 -9.5 t-1 -5t-44 5q-35 6 -46.5 10.5t-10 6.5t9.5 3t11 1t-5 0h-37h-37t-5 0t11 -1t9.5 -3t-10 -6t-46.5 -11q-37 -6 -44 -5t-1 5t20.5 9.5t21.5 9.5t1 2t-39 -10zM125 492.5q0 -5.5 4 -5.5t4 5.5t-4 5.5t-4 -5.5zM137 472q0 -5 4 -5t4 5t-4 5t-4 -5zM147 451q0 -5 5 -5q4 0 4 5.5 t-4 5.5q-5 0 -5 -6zM152 985q12 23 25 39t28.5 30.5t31 30t27.5 33.5h-4q-16 0 -34.5 -14t-35 -34.5t-27.5 -43t-11 -37.5v-4zM158 425q0 -5 4 -5t4 5t-4 5t-4 -5zM168 404.5q0 -5.5 4 -5.5t4 5.5t-4 5.5t-4 -5.5zM172 705l82 -113l57 20v93h62v-93l57 -20l84 113v10 q0 4 -18.5 9t-41 10t-42 8t-23.5 3q-12 0 -16 -2t-4 -18h-54q0 16 -4 18t-16 2q-4 0 -25.5 -4t-43.5 -10t-40 -13q-14 -6 -15 -11q0 -1 1 -2zM172 819q0 6 1 16.5t5 20.5t12.5 15t22.5 -1q-4 0 -7 8.5t-3 12.5q0 2 2 4q6 6 8 6q4 4 20.5 10.5t20.5 10.5q8 -10 9 -19.5 t1 -21.5q0 -20 -13 -29.5t-18 -32.5h-61zM178 388q0 -5 4 -5t4 5t-4 5t-4 -5zM193 369q0 -20 15 -33.5t36 -13.5h10l-61 51v-4zM264 311q13 -8 21 0q2 2 -1 3t-8.5 1t-9.5 -1q-3 -1 -3 -2zM281 922h14q4 0 26.5 -10.5t26.5 -10.5t20.5 10.5t20.5 10.5t10.5 3t10.5 3v-58 q0 -4 -13.5 -7t-17.5 -3q8 -16 6 -25.5t-9 -13.5t-16.5 -6t-17.5 -2q-4 0 -13.5 3t-13.5 3q-2 18 -7 28.5t-11 18.5t-11 20.5t-5 35.5zM328 870h41q0 4 -8.5 7.5t-12.5 3.5t-12 -3.5t-8 -7.5zM430 881q0 12 1 21t9 20q4 -4 20.5 -10.5t20.5 -10.5q2 0 8 -6q2 -2 3 -4 q0 -4 -3.5 -12.5t-7.5 -8.5q4 0 12.5 -3t8.5 -7t6 -28.5t6 -28.5q-41 0 -62.5 21.5t-21.5 56.5zM688 559q0 -59 28.5 -115.5t76.5 -91.5h16q31 0 58.5 15.5t60.5 25.5q8 4 18 10.5t21 10.5q10 6 22 12v526q0 12 -6 32t-14 32q-8 4 -27.5 12t-41 18.5t-40 18.5t-26.5 12 q-4 2 -9.5 4t-9.5 4q-6 2 -12 2q-27 -8 -48.5 -33.5t-35.5 -57t-22.5 -66.5t-8.5 -60v-311zM752 549v20q14 0 21 -10t11 -25.5t7.5 -31t11.5 -25.5l31 92h10q14 0 24.5 -14t15.5 -32.5t8 -35t5 -20.5l31 102h20q-2 -8 -7 -25.5t-9 -36t-8 -35.5t-6 -26q-4 -16 -4.5 -23 t-16.5 -7h-12q-2 4 -6.5 15t-8.5 25.5t-9 26t-7 15.5l-10 10l-31 -92h-10q-4 0 -10.5 1t-10.5 9q-2 8 -7 25.5t-9 36t-8 36t-6 25.5zM772 700q0 31 16.5 54.5t51.5 23.5q43 0 60.5 -18.5t17.5 -59.5q0 -29 -4.5 -45t-28.5 -32h-35q-39 0 -58.5 21t-19.5 56zM803 700 q0 -29 9 -43t38 -14q23 0 35 18.5t12 38.5q0 18 -12.5 37t-34.5 19q-29 0 -38 -14.5t-9 -41.5zM803 829v156h26v-141h78v-15h-104zM897 322q39 -4 68.5 -6.5t58.5 -3.5t58.5 -1h66.5h98q16 20 19.5 45t3.5 50q-57 0 -103.5 -4.5t-89.5 -14.5t-87 -26t-93 -39zM907 1108 q45 -27 89 -42t88 -23.5t89.5 -10.5t96.5 -2q0 53 -23 88h-133q-44 0 -102 1h-8q-54 0 -97 -11zM928 1182q8 -2 34.5 -3t57.5 -1t57.5 1t36.5 3q8 2 -22.5 2h-70.5h-71q-24 0 -24 -1t2 -1zM938 135q0 4 1 17.5t9 13.5h332v-146l-33 -20q-53 20 -104 41q-43 16 -89 33.5 t-75 29.5q-23 8 -32 9.5t-9 21.5zM938 1294q0 25 37 48.5t88 43t101 32t79 12.5h4q8 -4 21 -13l12 -8v-145h-332q-8 0 -9 13t-1 17zM1030 254h64.5t100.5 -1t117.5 -1t118 -1t101.5 -1h67q31 8 108 9t169 7t181 19.5t143 46.5q-8 4 -19.5 9t-11.5 17q0 20 6 47t13 55.5 t14.5 56.5t9.5 52q4 12 25.5 17.5t25.5 5.5v248q-29 -2 -46 27.5t-28.5 70.5t-15.5 82t-4 63v4q4 4 15 7.5t16 3.5q-33 31 -116 42t-179.5 15t-190.5 8t-149 19h-142q57 -2 134 -5t147 -23.5t118 -67t48 -134.5v-424q0 -66 -25.5 -117t-68.5 -85.5t-99.5 -53t-117.5 -18.5 h-529zM1036 883.5q0 -66.5 2 -143t4.5 -152.5t8.5 -131q41 1 79 1q72 0 137 -4q99 -8 210 -8q0 66 -5.5 132.5t-5.5 132.5q0 70 5.5 139.5t5.5 134.5q-55 0 -109.5 -5t-114.5 -5q-53 0 -108 5t-109 5v-101.5zM1104 115q6 -2 21.5 -8.5t34 -13.5t34.5 -12t23 -7h10v41h-123z M1104 1315h123v53q-6 -2 -20.5 -8t-31 -13.5t-31 -12.5t-20.5 -7q-4 0 -10 -6t-10 -6zM1321 307q86 0 171 3t171 22q-12 23 -56 35t-94.5 18t-93.5 7t-51 1q-20 0 -29.5 -7t-13.5 -19.5t-4 -27.5v-32zM1321 1098.5q0 -15.5 2 -28.5t8 -23.5t21 -10.5q25 0 71.5 7.5t94 16.5 t83 17t39.5 10l23 11q-39 10 -84 15t-91 8t-89 3h-78v-25.5zM1423 125l11 41h342v-146l-41 -20q-59 20 -113 43q-47 18 -96 37.5t-82 34.5q-4 0 -12 4q-4 2 -9 6zM1423 1305l9 4q4 2 7 3t5 3q16 6 56 22.5t85 35t84 34.5t55 23h5h6l24 -13l17 -8v-145h-342zM1528 508l20 -82 q37 -8 59.5 -16.5t39 -17.5t34 -18t43.5 -22l9 4q4 2 7 3t5 3q37 27 52 78.5t21 106.5q4 36 3 71q0 20 -1 38q-3 54 -3 85q0 9 2 63q1 15 1 29q0 43 -4 89q-6 64 -25 114.5t-62 50.5q-6 0 -30 -12t-52.5 -27.5t-56 -27.5t-42.5 -14q-8 -20 -14 -57.5t-6 -57.5v-383z M1589 1315h125v47q-4 0 -10 -2t-10 -2q-6 -2 -20.5 -8.5t-32 -13.5t-32 -13t-20.5 -8zM1599 115q23 -12 55 -26.5t60 -14.5v41h-115zM1890 410q0 78 10.5 152.5t10.5 152.5q0 74 -10.5 150.5t-10.5 150.5q0 27 15.5 41t38 21t47 8t45.5 1q61 0 87.5 -41.5t34.5 -101.5 q6 -40 6 -82q0 -20 -1 -40q-4 -64 -4 -107t4 -107q1 -20 1 -40q0 -42 -6 -82q-8 -60 -34.5 -102t-87.5 -42q-18 0 -43 2t-47.5 9t-39 20.5t-16.5 36.5zM2249 472q0 -5 4 -5t4 5t-4 5t-4 -5zM2249 963.5q0 -5.5 4 -5.5t4 5.5t-4 5.5t-4 -5.5z" />
<glyph unicode="E" horiz-adv-x="2428" d="M14 723v143q35 -2 49 0q18 2 33 2q23 0 56.5 3t52.5 6q43 0 55 11t12 52q0 12 -4 100t-4 179h123q0 -61 6 -175q6 -133 6 -163q63 -10 263 -11v-143h-265v-344l-133 -2v346zM811 1058q0 3 31 7q5 1 15 1q19 0 56 -3q63 -6 97 -6q109 0 145 47v57l-119 156q31 37 94 96 q33 -47 64 -92q45 -59 72 -59q51 0 190 104q23 121 23 238l110 4q10 -33 10 -109v-139v4q53 -29 158 -123q35 27 150 170q20 0 96 -94q-59 -111 -137 -176q25 -90 51 -180q43 -96 147 -97q33 0 70 8v-145q-19 2 -40 2q-56 0 -130 -12q-80 -186 -80 -230q0 -61 101 -180 q0 -47 -58 -121l-153 150q-18 -16 -148 -90q-16 -57 -16 -230q-4 0 -66 -6q-12 -1 -22 -1q-30 0 -43 9q1 12 1 29q0 53 -10 146q-10 18 -77.5 59t-94.5 41q-25 0 -49 -50t-47 -100q-20 0 -57 29q-29 20 -58 43l101 195q-66 55 -178 55h4q0 -1 -90 -6q-15 -1 -29 -1 q-41 0 -70 9l-6 553q-2 10 -5 22.5t-3 15.5zM948 739q5 -124 6 -124v3h121v275h-121q-7 -47 -7 -106q0 -23 1 -48zM1188 778q0 -170 112 -280q100 -96 228 -97q100 0 202.5 115t102.5 250q0 150 -78 268q-92 141 -244 142q-131 0 -227 -120t-96 -278zM2302 383v834h113v-857 z" />
<glyph unicode="F" horiz-adv-x="3110" d="M14 508q0 127 107 190q66 39 228.5 72t213.5 61l256 17q33 0 209 219q184 229 248.5 255t216.5 26l496 -56q18 0 145 -26q41 -8 147 -109q121 -115 166 -139q29 -16 50 -17q0 27 133 137.5t182 110.5q45 0 90 -59q37 -53 37 -86q0 -37 -47 -62q-33 -14 -66 -30 q-20 -16 -47 -58q-29 -47 -51 -67q8 -16 16.5 -27.5t34.5 -11.5q18 0 94 -31t109 -51q20 -14 66.5 -135t46.5 -156q0 -43 -76 -182q-78 -147 -117 -154q-72 -25 -211 -51q-12 -10 -88 -115q-66 -90 -113 -102q-59 -12 -112 -12q-115 0 -185 57q-16 12 -92 107 q-47 57 -102 57h-1010q-35 -49 -102 -131q-23 -23 -86.5 -51.5t-95.5 -28.5q-8 0 -87 14q-47 8 -110 45q-70 43 -113 99q-2 4 -24 55q-16 43 -43 61q-14 10 -71.5 17.5t-86.5 25t-94 158.5q-61 133 -62 164zM125 508q0 -49 23.5 -109.5t55.5 -90t99 -46.5q76 -20 92 -29 q41 -25 63.5 -90t26.5 -69q102 -86 138 -86q4 0 19 2t28 2q106 0 149 37q51 66 137 147q23 10 56 12q23 2 63.5 -1t57.5 -3h157q4 2 4 10.5t17 8.5q14 0 46 -11.5t42 -11.5l512 13q102 0 186 -27q20 -12 43 -23q47 -84 113 -137q25 -8 55 -18q49 -29 59 -29q80 0 138 47 q27 25 67.5 93.5t53.5 78.5q29 20 147 43q104 18 129 53q29 45 57 129q25 76 25 101q0 20 -24.5 77.5t-47.5 92.5q-12 18 -57 28q-31 6 -64 15q-53 18 -104 35q-74 33 -82 84l244 303q-29 16 -60 16q-74 0 -182 -131t-151 -131q-55 0 -154 98q-141 141 -190.5 176t-88.5 35 q-25 0 -43 -14q180 -129 181 -369v-61q-10 -55 -50 -56l-1001 13q-51 0 -51 78q0 45 34.5 116.5t67.5 106.5q45 51 91 99t71 63q45 26 125 26h6l518 -20q-46 53 -113 53h-10q-56 -2 -87.5 -2t-39.5 2l-317 12q-92 0 -203 -131q-92 -121 -184 -239q-109 -131 -193 -131 l-411 -46q-33 0 -240 -71q-4 -14 -29 -68q-20 -41 -20 -55zM1194 805h854q0 10 6 24.5t6 28.5q0 16 -10 60q-12 51 -15 67t-18 35q-8 12 -17 20.5t-54 8.5l-152 32l-395 23q-27 0 -117 -120t-88 -132v-47z" />
<glyph unicode="G" horiz-adv-x="2693" d="M8 760l658 817v-444h487v-713h-487v-412zM190 768q98 -104 314 -338q-1 22 -1 41q0 100 27 100q2 0 9 -2h8q8 0 12 4q47 0 149.5 3.5t137.5 3.5q112 0 112 -2h-2q60 2 74 20q-10 203 -18 287q-6 63 -6 59h-471q0 154 -3.5 173.5t-31.5 19.5q-80 -86 -197 -224.5 t-113 -144.5zM1532 426v713h489v442l656 -815l-656 -752v412h-489zM1655 604q14 -18 74 -20h-2h114q35 0 137.5 -2t147.5 -2q6 -6 12 -7q4 0 8 2h11q25 0 25 -93q0 -20 -1 -46q316 337 316 338q0 9 -114 144q-118 139 -198 225q-29 -2 -33 -25q-2 -14 -2 -168h-471 q0 2 -6 -59q-8 -86 -18 -287z" />
<glyph unicode="H" horiz-adv-x="2447" d="M0 1233v158h356l76 -985h10l76 985h55l86 -1051l76 1018q0 29 13.5 36t42.5 7v-33l-99 -1286q-4 -29 -6 -39t-27 -10q-4 0 -10 2t-10 2l-88 1057l-86 -1057h-53l-105 1245v-49h-129v-1196h-53v1196h-125zM844 37v1354h43v-1354h-43zM973 37v1354h59v-1174h191v-180h-250z M1266 37v1354h53v-1354h-53zM1384 629.5v89.5v73.5t3.5 138.5t13.5 168t30.5 162.5t53.5 123t84 49.5q57 0 88 -57.5t45 -132.5t16 -148.5t2 -106.5h-43q-10 0 -14 42t-12.5 93.5t-25.5 93.5t-56 42t-63.5 -37t-38 -94.5t-17.5 -125t-4 -130t2 -109.5t2 -62v-221 q2 -27 6 -77t16.5 -100t35 -88t61.5 -38q31 0 51 29t32.5 73t17.5 97t7 102q1 33 1 60v26q-1 37 -1 51h-108v146h162v-725h-33q0 10 -2 20t-4 19.5t-4 15.5q0 8 -5.5 38t-5.5 38q-6 -23 -14 -50.5t-22.5 -52t-34 -42t-47.5 -17.5q-47 0 -79 46t-51.5 117t-28.5 156 t-12.5 163.5t-3.5 141zM1806 37v1354h49v-541h185v541h49v-1354h-49v629h-185v-629h-49zM2142 1233v158h303v-158h-125v-1196h-53v1196h-125z" />
<glyph unicode="I" horiz-adv-x="2807" d="M16 14v1346v20q0 83 29 162q47 131 158 131h2425q80 0 163 -82v-1470q0 -39 -32 -68q-25 -20 -49 -39h-2694zM111 866q28 1 64 1q71 0 173 -5q174 -6 256 -6t232 111q102 76 262 266q204 243 282 323l-1257 -12zM117 119h2566v1433l-1198 -6q1 -5 1 -9q0 -80 -157 -228 q-129 -121 -258 -240q-90 -102 -215 -207.5t-164 -107.5h-575v-635zM1391 1257q0 31 51 31q25 0 59 -4h199q-33 -39 -35 -41q-14 -25 -14 -65q0 -31 37 -80q45 -61 51 -78q33 -80 59 -221q27 -125 27 -178q0 -127 -17 -199q-25 -109 -100 -211q0 29 8 125t8 135 q0 127 -57 295q-74 213 -178 213q-59 0 -94 -49v289q-4 -12 -4 38zM2050 784l6 78l582 -4v-74h-588z" />
<glyph unicode="J" horiz-adv-x="2048" d="M14 930v8q43 72 124 133.5t178.5 109.5t201 83.5t192.5 58.5t154 31q44 5 68 5q11 0 18 -1l13 16q0 2 2 11.5t5 21.5t5 23.5t2 17.5h102v-90q31 0 101.5 -11.5t161 -36t192.5 -61.5t197.5 -84t175.5 -106.5t127 -128.5v-15l-514 -901l-15 -14q-59 49 -110.5 86 t-101.5 63.5t-101 41t-113 16.5v-60h-108v60h-35q-17 2 -34 2q-44 0 -88 -15q-60 -20 -112.5 -51.5t-95.5 -64.5t-69 -49q-4 0 -9.5 2t-11.5 14zM164 901l393 -694h6q45 25 96.5 50.5t104.5 46t106 31.5q35 7 67 7q17 0 34 -2v43h108v-43q106 -23 203.5 -62.5t196.5 -101.5 l405 711v14q-29 49 -84 93t-124.5 80t-145.5 63.5t-144.5 47t-124 30t-81.5 10.5q-10 0 -26.5 1t-33.5 3q-20 2 -41 4v-66h-108v66q-20 -2 -39 -4q-16 -2 -33.5 -3t-30.5 -1q-14 4 -63 -3.5t-118 -24.5t-146.5 -44t-151.5 -62.5t-134 -81.5t-91 -102v-6zM313 1417 q0 51 23.5 62.5t64.5 11.5q35 0 35 -51v-8q-41 -4 -64.5 -9.5t-58.5 -5.5zM328 1565q0 12 4 31.5t10 39t16.5 33.5t22.5 14q10 0 24.5 -5t29 -11t22.5 -14t6 -15l-27 -88h-28q-20 0 -40 2.5t-40 12.5zM422 1757q0 14 10 27.5t23.5 25t27 20.5t21.5 15q16 -10 34.5 -41.5 t18.5 -54.5v-6l-68 -60q-6 -4 -17 4.5t-22.5 20.5t-19.5 26.5t-8 22.5zM571 1876q25 16 58 22.5t63 6.5v-119l-80 -14l-8 4q-6 2 -6 10q-2 6 -6 19.5t-9 26.5t-8.5 25.5t-3.5 18.5zM748 1786v16q0 23 4 54.5t8 48.5q6 0 25.5 -4.5t41 -11.5t39 -16t17.5 -20q0 -6 -6.5 -22 t-15.5 -33.5t-18 -31t-16 -9.5zM883 1729q2 4 4 10q4 14 8 18q6 6 21.5 29.5t19.5 30.5l88 -82l88 82q20 -16 37.5 -38t17.5 -50q0 -29 -17 -43.5t-38 -30.5q-10 4 -40 21.5t-40 21.5h-8h-6q-6 -2 -17.5 -8.5t-23.5 -13.5t-23.5 -13t-17.5 -8zM963 1595v7q0 27 22.5 31.5 t38.5 4.5q20 0 40.5 -5t20.5 -38q0 -6 -1 -18t-3 -24.5t-5 -21.5t-5 -9h-94l-4 28q-2 23 -10 45zM965 451l6 118h114l-2 -114zM965 627v116h114l-6 -116h-108zM977 813v102h94v-102h-94zM977 989v105h94v-105h-94zM1180 1845q0 33 30.5 39t51.5 6q35 0 38 -26.5t3 -55.5v-22 l-82 -29q-4 -4 -11.5 8.5t-13.5 27.5t-11 30.5t-5 21.5zM1356 1786v119q6 -2 25.5 -3t39 -3.5t37 -9.5t21.5 -21v-6l-6.5 -19.5t-7.5 -27t-7 -25.5l-6 -18h-8h-6q-25 6 -52 10q-14 2 -30 4zM1491 1743q-2 2 5 17.5t17.5 33.5t20.5 33.5t12 17.5q25 -16 49.5 -40.5 t44.5 -47.5q-4 -6 -19 -22.5t-22 -22.5q-4 -4 -11 -8t-13 -8q-8 -6 -14 -13zM1599 1624q0 14 11.5 26.5t25 21.5t26.5 16.5t19 9.5q16 -29 28.5 -62.5t12.5 -62.5q0 -12 -7 -16.5t-17 -6.5t-20.5 -1t-16.5 1q-35 0 -48.5 17.5t-13.5 56.5zM1628 1432v67q12 0 29.5 -1t33 -5 t27 -15.5t11.5 -29.5q0 -6 -3.5 -15.5t-3.5 -15.5z" />
<glyph unicode="K" horiz-adv-x="2920" d="M18 1069q-4 18 37 47q434 287 961 287q250 0 504 -74q280 -82 450 -223l-520 -834q-217 123 -420 123q-61 0 -84 -14q0 -23 2 -33q16 -43 62 -123q23 -14 67 -47q29 -20 29 -69q0 -94 -94 -95q-33 0 -70 29q-23 16 -22 51q0 12 6 51q4 29 0 41q-27 82 -92 174 q-113 -8 -244 -106h-31zM170 1026l434 -631l182 74l-356 713l-260 -117v-39zM338 1456q-2 23 -2 45q0 91 39 174h26q18 0 34 -13.5t16 -29.5q-1 10 -15 -48q-13 -51 -12 -125v-21q-2 0 -14.5 -5.5t-24.5 -5.5q-33 0 -47 29zM442 1759q10 29 60 56q43 25 86 47l39 -11v-75 l-123 -66q-23 10 -62 49zM541 1204q57 -117 164.5 -348t162.5 -344q10 -20 60 -20l98 10l385 -88l418 657q-12 25 -45 45q-133 76 -363.5 132.5t-390.5 56.5q-31 0 -229 -21q-76 -16 -213 -45q-31 -6 -47 -35zM727 1784v76h55h2q35 0 136 -82q-6 -12 -26 -30.5t-32 -18.5z M928 1628q0 14 25.5 40t41.5 26t41 -19t25 -35q0 -51 -37 -137q-49 -12 -39 -12q-20 0 -37 20q0 16 -10 61.5t-10 55.5zM961 1067v139h77v-129zM965 829v140l73 -11v-129h-73zM967 590v139q2 0 21.5 5t33.5 5q12 0 18.5 -10t10.5 -18v-121h-84zM1061 1774q0 20 65 59 q59 37 82 37h35l12 -10v-60q-123 -71 -141 -71q-16 0 -34.5 14t-18.5 31zM1343 1831q0 12 5.5 23.5t5.5 15.5h28q44 0 148 -82q-27 -59 -57 -59q-33 0 -81.5 41.5t-48.5 60.5zM1538 1640q4 16 25.5 35t33.5 19q47 -72 45 -101v-137h-75zM2087 1069q0 12 12 21q92 23 400 114 q262 80 288 80h119l4 -463h-102l-717 219q0 -14 -4 29z" />
<glyph unicode="L" horiz-adv-x="1984" d="M18 1065q-4 18 37 47q434 287 961 287q250 0 504 -74q280 -82 450 -223l-520 -834q-217 123 -420 123q-61 0 -84 -14q0 -23 2 -33q16 -43 62 -123q23 -14 67 -47q29 -20 29 -70q0 -94 -94 -94q-33 0 -70 29q-23 16 -22 51q0 12 6 51q4 29 0 41q-27 82 -92 174 q-113 -8 -244 -106h-31zM170 1022l434 -631l182 74l-356 713l-260 -117v-39zM338 1452q-2 23 -2 45q0 91 39 174h26q18 0 34 -13.5t16 -29.5q-1 10 -15 -48q-13 -51 -12 -125v-21q-2 0 -14.5 -5.5t-24.5 -5.5q-33 0 -47 29zM442 1755q10 29 60 55q43 25 86 48l39 -11v-75 l-123 -66q-23 10 -62 49zM541 1200q57 -117 164.5 -348t162.5 -344q10 -20 60 -21l98 11l385 -88l418 657q-12 25 -45 45q-133 76 -363.5 132t-390.5 56q-31 0 -229 -20q-76 -16 -213 -45q-31 -6 -47 -35zM727 1780v75h55h2q35 0 136 -81q-6 -12 -26 -31t-32 -19zM928 1624 q0 14 25.5 40t41.5 26t41 -19t25 -35q0 -51 -37 -137q-49 -12 -39 -12q-20 0 -37 20q0 16 -10 61.5t-10 55.5zM961 1063v139h77v-129zM965 825v140l73 -11v-129h-73zM967 586v139q2 0 21.5 5t33.5 5q12 0 18.5 -10t10.5 -18v-121h-84zM1061 1769q0 20 65 60q59 37 82 37h35 l12 -11v-59q-125 -72 -141 -72t-34.5 14.5t-18.5 30.5zM1343 1827q0 12 5.5 23.5t5.5 15.5h28q44 0 148 -82q-27 -59 -57 -60q-33 0 -81.5 42t-48.5 61zM1538 1636q4 16 25.5 35t33.5 19q47 -72 45 -101v-137h-75z" />
<glyph unicode="M" horiz-adv-x="2344" d="M6 721q0 51 18.5 129t53.5 152.5t85 130t111 59.5l902 68h-228q-4 0 -7 17t-3 28q0 2 2 6q6 6 8 6l299 113h6q8 0 20.5 -10.5t20.5 -10.5v-145h146q0 49 26.5 73.5t69.5 39t95 24.5t104 29h4h6q4 -2 9 -5.5t9 -7.5l13 -8v-149h-299q33 -2 116.5 -9.5t178 -15.5 t178.5 -14.5t116 -8.5q100 -10 154.5 -56t80.5 -114.5t30 -151.5t4 -169q0 -139 -14.5 -231.5t-47 -148.5t-86 -84t-133.5 -41t-187.5 -18t-246.5 -16h156v-159q0 -4 -11.5 -13.5t-19.5 -9.5l-12 4q-4 2 -9.5 3t-9.5 3q-16 6 -53 20.5t-79 32t-78 32t-50 20.5q-4 0 -12 4 q-4 2 -8 6v51h-140v-153l-47 -23h10q-16 6 -54 20.5t-80 32t-80.5 31.5t-53.5 20q-4 0 -20.5 8.5t-20.5 12.5q-4 0 -8 4q-2 2 -2 6q0 12 3 29.5t7 17.5h82q-111 8 -227.5 9.5t-229 9.5t-214 32.5t-178.5 82t-124 154.5t-51 251zM68 715q0 -49 14 -113.5t43 -124t72 -106 t98 -60.5q160 -23 283.5 -34t239.5 -16t234.5 -6t268.5 -1q20 0 76.5 1t120 2t119 2t77.5 1q29 2 92.5 3t135 7t142 20.5t116.5 41.5q-10 4 -10.5 13t-0.5 17q0 51 17.5 115t25.5 115h31v252h-31q-6 49 -8 98t-13 91t-37 71t-77 37q-123 14 -217 23.5t-180 12.5t-175 4 t-200 1q-143 0 -256 -2t-223.5 -7.5t-236.5 -15.5t-294 -29q-59 -8 -105 -53t-78 -107.5t-48 -131t-16 -121.5zM129 694v41q0 18 30.5 29.5t70.5 20t78 11.5t50 3q14 0 50 -3t73 -11.5t65.5 -24t28.5 -39.5v-16q-6 -8 -20 -29t-31.5 -43.5t-32 -44t-20.5 -29.5 q-8 -8 -18.5 -14t-22.5 -6q-43 6 -54 10t-7 6t16 3t17.5 1t-5 0h-49.5q-29 0 -50.5 -10t-43.5 -10h-10zM139 535q0 14 23 14q2 0 4 -2q6 -6 6 -8l72 -144q6 -12 19 -18t27.5 -10.5t25 -12.5t10.5 -22h-25q-29 0 -58.5 21.5t-52 52t-37 65.5t-14.5 64zM139 907v4 q8 25 21.5 59t33 64.5t46 52t61.5 21.5h25q-16 0 -45 -26.5t-55.5 -62.5t-43 -70t-10.5 -48l-6 -6l-4 -4q-8 0 -15.5 4t-7.5 12zM172 711q0 -12 11.5 -32t25.5 -40.5t29.5 -36.5t25.5 -20q2 -2 13.5 1t24.5 7t26.5 8t19.5 4q23 0 47.5 -2t44.5 -18q4 6 14.5 19t22.5 30.5 t25.5 34t21.5 28.5q2 2 3 5t3 8l5 8q0 14 -16.5 22t-38 12.5t-44 5.5t-37.5 1h-30q6 -31 -21 -31q-10 0 -12 5l-4 10t-4 10.5t-13 5.5q-41 0 -76.5 -9.5t-66.5 -31.5v-4zM197 819q0 31 21 61.5t56 30.5q0 -10 -8 -25.5t-20.5 -29.5t-25.5 -25.5t-23 -11.5zM285 897 q0 14 20 14q12 0 21.5 -5t25.5 -5t25.5 5t21.5 5q10 0 15.5 -2t5.5 -18q0 -8 -16.5 -14.5t-20.5 -6.5q-8 0 -15.5 5.5t-15.5 5.5h-4q-4 0 -16.5 -5.5t-16.5 -5.5q-8 0 -19 9.5t-11 17.5zM338 623v30h20v-30h-20zM338 674v31h20v-31h-20zM338 829v31h20v-31h-20zM436 911 q35 0 48.5 -30.5t13.5 -61.5q-12 0 -22.5 11.5t-20 25.5t-14.5 29.5t-5 25.5zM647 559v322q0 86 32 142t84 88t119 45q68 14 140 18q40 3 80 2q32 0 62 -2q70 -4 126 -3q42 -1 102 3q38 2 78 2h46q64 -2 128 -11.5t114 -35t81 -70.5t31 -117v-414q0 -74 -26.5 -121 t-69.5 -75.5t-99.5 -42t-115.5 -19.5h-291q-57 0 -125 -2q-27 -1 -55 -1q-40 0 -82 2q-70 3 -134.5 17.5t-114.5 46.5t-80 86t-30 140zM752 569l41 -143q0 -2 2 -4t8 -2q12 0 14 7t6 19q2 6 7.5 18.5t9.5 28t8 27.5t6 19l31 -103q0 -8 6 -9t10 -1t8 1t9 9q2 6 6 21.5t8 34 t9 35t7 22.5v20h-10l-31 -92h-12l-31 92h-20l-31 -92h-10l-31 92h-20zM782 700q0 -35 18.5 -56t53.5 -21q41 0 57.5 23.5t16.5 58.5q0 31 -19.5 52t-54.5 21t-53.5 -21.5t-18.5 -56.5zM813 664v71q0 16 16.5 18.5t24.5 2.5t24.5 -2t16.5 -19v-71q0 -12 -16.5 -16.5 t-24.5 -4.5t-24.5 4t-16.5 17zM813 829h94v15h-78v141h-16v-156zM874 322q41 -14 84 -19.5t86 -5.5t86.5 2t86.5 2h51l22 105q2 4 -3 7t-9 3h-14q-68 0 -114 -5t-87 -16.5t-84.5 -29.5t-104.5 -43zM874 1118q106 -57 203 -74.5t213 -17.5v10q-2 6 -5 19.5t-6 28t-6 26.5 t-5 18h-144q-63 0 -125 1h-10q-57 0 -115 -11zM1047 995q0 -25 1 -88t1 -135t1 -135.5t1 -87.5q0 -6 1 -20.5t2 -31t3 -31t4 -20.5q30 1 59 1q28 0 56 -1q54 -2 106.5 -4l105 -4t109.5 -2q0 70 -5 137.5t-5 141.5t5 145.5t5 145.5q-59 0 -117.5 -10.5t-122.5 -10.5 q-53 0 -105 5t-105 5zM1104 1317h133v51q-12 -4 -32.5 -12t-41 -16.5t-37 -14.5t-22.5 -8zM1114 115q6 -2 21.5 -8.5t34 -13.5t35 -12t22.5 -7h10v41h-123zM1311 297q86 0 186 2t186 33v6q0 12 -23.5 22.5t-57 17.5t-74.5 12t-77 9t-59.5 5.5t-25.5 1.5h-35 q-4 -12 -12 -49.5t-8 -59.5zM1311 1118q2 -6 4 -18.5t5 -26.5t6 -27.5t5 -19.5h10q78 0 166 15.5t166 45.5l10 11l-10 10q-31 16 -85 22.5t-110 7.5h-37q-36 0 -67 -1q-47 -2 -63 -2v-17zM1518 715q0 -74 0.5 -146.5t29.5 -142.5q59 -4 97 -16.5t58.5 -27.5t26 -27.5 t-0.5 -12.5h6q41 35 61.5 79t29.5 93t10 100.5t1 100.5q0 17 2 79v25q0 51 -6 105q-8 68 -29.5 121t-68.5 53h-11q-33 -20 -40 -30.5t-15 -18t-31.5 -13.5t-89.5 -20q-29 -72 -29.5 -150t-0.5 -151zM1589 1317h135v51zM1610 115q23 -12 54.5 -26.5t59.5 -14.5v41h-114z M1890 416q0 74 10.5 150.5t10.5 154.5t-10.5 154.5t-10.5 150.5q0 25 18.5 39t43 21.5t51.5 9.5t43 2q61 0 88 -44t35 -106q5 -41 5 -82q0 -20 -1 -42q-4 -64 -4 -103q0 -43 4 -107q1 -22 1 -43q0 -43 -5 -83q-8 -60 -35 -103t-88 -43q-18 0 -45 1t-51.5 8t-42 21.5 t-17.5 43.5zM1931 420q0 -18 11.5 -25.5t27.5 -10.5q12 -2 25 -2h8q16 1 27 1h57q27 14 37 62.5t11 103.5v22q0 43 -3 82q-4 49 -4 68q0 15 4 65q3 40 3 84v22q-1 56 -11 104t-37 61h-47q-12 0 -30 1h-10q-14 0 -26 -2q-18 -3 -30.5 -10.5t-12.5 -25.5q0 -74 10.5 -150.5 t10.5 -154.5q0 -74 -10.5 -148.5t-10.5 -146.5zM2228 389q0 -6 4 -6t4 6t-4 6t-4 -6zM2228 1052q0 -5 4 -5t4 5t-4 5t-4 -5zM2238 414q0 -4 5 -4q4 0 4 5t-4 5q-5 0 -5 -6zM2238 1014q0 -4 5 -4q4 0 4 5t-4 5q-5 0 -5 -6zM2249 477q0 -6 4 -6t4 6t-4 6t-4 -6zM2249 963.5 q0 -5.5 4 -5.5t4 5.5t-4 5.5t-4 -5.5z" />
<glyph unicode="N" horiz-adv-x="2043" d="M18 1194q6 12 21 29q436 288 962 288q616 0 1029 -335l-555 -900q-260 147 -375 148h-133q-14 -16 -15 -35q0 -43 56 -143q6 -12 59 -53q39 -31 39 -78q0 -49 -28.5 -76t-65.5 -27q-41 0 -69 27t-28 67q0 12 4.5 41t4.5 43q0 12 -2 21q-56 184 -105 184h-4l-248 -98z M164 1143l438 -699q49 16 98 33q59 22 88 49l-337 781q-174 -74 -267 -123q-20 -12 -20 -41zM563 1317q92 -233 266 -649l43 -105q8 -16 18.5 -23.5t43.5 -7.5q10 0 21.5 4.5t19.5 4.5q111 0 203 -21h4q98 -25 252 -86l442 699q0 25 -12 32q-389 240 -844 240 q-178 0 -236 -12q-39 -6 -209 -52q-2 -6 -12 -24z" />
<glyph unicode="O" horiz-adv-x="1345" d="M8 559q2 55 25.5 133t64.5 148.5t96.5 122t120.5 57.5h17l49 -96q-109 -60 -179 -152q-65 -84 -65 -194v-19q0 -111 50.5 -188.5t129 -127.5t175 -74t188.5 -24q98 0 192.5 25t168 76t119.5 129t46 184q0 68 -14 116t-42 88t-67 77t-88 84v8q0 6 4.5 20.5t12.5 29.5 t18 26.5t23 11.5q61 -16 114.5 -73.5t94.5 -129.5t65.5 -143.5t24.5 -114.5q0 -133 -61.5 -237.5t-160 -176t-219 -108.5t-239.5 -37t-237 38t-213 110.5t-154.5 176t-59.5 234.5zM608 647v778h113v-778h-113z" />
<glyph unicode="P" horiz-adv-x="1869" d="M10 842q0 176 115 366q119 203 309 320l109 -94q-123 -156 -248 -314q-66 -94 -66 -297q0 -299 279 -481q221 -147 455 -147q205 0 418.5 135t265.5 309q12 43 12 203q0 164 -27 231q-16 41 -92 125q-94 104 -174 238l88 92q158 -33 289 -264q119 -207 119 -371 q0 -121 -27 -260q-31 -166 -82 -240q-160 -221 -348 -309q-172 -80 -442 -80q-387 0 -666 240q-287 244 -287 598zM821 926v977h228v-1018z" />
<glyph unicode="Q" horiz-adv-x="1681" d="M8 811q0 45 1 78t5 74q4 37 19.5 79.5t29.5 79.5q41 119 121 214.5t182.5 162t223.5 102t244 35.5q170 0 317 -66.5t254.5 -179t169 -262t61.5 -317.5q0 -172 -66.5 -319.5t-179 -255t-262 -168t-317.5 -60.5q-117 0 -218.5 31t-199.5 86q-14 18 -40.5 32.5t-45.5 28.5 q-72 68 -127 136.5t-93 143.5t-58.5 159t-20.5 186zM70 815q0 -109 23.5 -197t68.5 -164.5t111.5 -143t150.5 -130.5l6 -6q88 -51 183.5 -77.5t197.5 -26.5q111 0 203 24.5t194 79.5q4 8 19.5 19.5t34 22.5t36 21.5t27.5 20.5q115 106 182.5 250.5t67.5 302.5 q0 152 -57.5 290t-156.5 243.5t-235.5 168t-291.5 62.5q-127 0 -256 -37q-51 -29 -98.5 -48.5t-98.5 -55.5q-152 -104 -231.5 -269.5t-79.5 -349.5zM119 846q0 143 65.5 274t165.5 223q2 2 12.5 10.5t22.5 17.5t23.5 18.5t15.5 13.5l12 6l6 6q51 27 97.5 47.5t92.5 32.5 t95 18.5t107 6.5q147 0 273 -56.5t217 -154t143.5 -226.5t52.5 -272q0 -162 -70 -298t-193 -243q-55 -45 -125.5 -81.5t-144.5 -51.5q-4 0 -21.5 -3t-21.5 -3t-12 -3t-12 -3h-195q-47 14 -92 22.5t-86 26.5q-213 100 -320.5 271.5t-107.5 400.5zM246 821q0 -137 85 -215 t228 -78q63 0 119.5 20.5t97.5 59.5t64.5 93.5t23.5 119.5q0 70 -24.5 124t-66.5 92t-99.5 58.5t-120.5 20.5q-68 0 -124 -20.5t-97 -58.5t-63.5 -92t-22.5 -124zM381 821q0 78 44 134.5t128 56.5q88 0 130 -53.5t42 -131.5q0 -82 -42 -138t-130 -56q-78 0 -125 55t-47 133z M920 522h135v305q0 14 19.5 32t29.5 18h80q4 0 20.5 -16.5t16.5 -26.5v-312h122v355q0 25 -15 45t-37.5 34.5t-48 22.5t-46.5 8q-94 0 -147 -61v49h-129v-453zM981 1190q4 -2 13.5 -8t19.5 -13.5l18 -13.5t10 -8l7 -6l-31 -92v-7q23 0 48.5 22.5t43.5 33.5q6 -4 18.5 -13.5 t24.5 -18.5t24.5 -16.5t18.5 -7.5q0 23 -14.5 46.5t-10.5 46.5q2 2 5 6q6 6 8 6q2 2 10 8t18.5 13.5t19.5 13.5t13 8v18h-98l-37 99h-6l-31 -99h-92v-18z" />
<glyph unicode="R" horiz-adv-x="2140" d="M10 797q0 78 21 215q27 176 67 272q31 72 131 152q94 74 185 102q272 82 749 82q213 0 359 -35q182 -45 323 -123q156 -86 197 -180q82 -160 82 -479q0 -238 -25 -342q-35 -147 -149 -240q-121 -100 -381 -176q-167 0 -357 -10q-179 -9 -179 -10h1h-4q8 2 76 14 q-82 -2 -127 -4q-59 2 -119 6q10 8 289 29l416 45q78 0 233 75q178 86 207 175q63 193 63 317q0 223 -6 283q-18 221 -94 309q-158 188 -426 246q-139 30 -425 30h-19q-1008 0 -1010 -469q-16 -115 -16 -278q0 -166 16 -316q106 -217 264 -313q74 -45 242 -88l995 -35 q-16 -23 -319 -35q-211 -8 -383 -8q-365 0 -568 123q-309 188 -309 666zM141 784q0 258 60 410q188 291 868 291q453 0 651 -113q279 -156 279 -588q0 -385 -248 -534q-166 -100 -483 -100q-41 0 -113 2t-98 2q-313 0 -451 22q-223 39 -334 164q-131 147 -131 444zM848 801 q0 -100 63.5 -164t157.5 -64q121 1 221 148q1 11 1 21q0 114 -60 210q-72 113 -174 113q-80 0 -144.5 -86t-64.5 -178z" />
<glyph unicode="S" horiz-adv-x="1540" d="M18 1378q0 80 17.5 106.5t68.5 71.5q76 68 80 72q37 37 92 64q94 45 173 45l645 20q139 -35 194 -78q43 -35 107 -143q118 -202 118 -493q0 -33 -2 -68q7 -76 15 -365q0 -156 -60 -315q-78 -207 -215 -262q-59 -23 -55 -23l-813 -12q-68 0 -211 132t-143 183zM74 385 q0 -92 133 -210t254 -118l588 -8q10 0 36.5 6t30.5 6q125 14 195 78q94 84 119 217l28 254l-26 557q-2 57 -11 93q-25 109 -106 280q-8 18 -39 53t-47 45q-96 57 -135 58l-648 -15q-12 0 -57 -18q-61 -25 -76 -29q-45 -14 -139 -106q-100 -94 -100 -139v-1004zM113 469v920 q0 61 116 147q96 72 125 76q143 18 143 20h-1h561q63 0 117 -30q88 -49 118 -109q20 -41 76 -246q2 -6 10 -148.5t8 -156.5l15 -324q0 6 -6 -36q-1 -10 -1 -22q0 -22 5 -48q-12 -39 -17 -53q6 23 11 22q2 0 2 -10q0 -20 -9 -78q-12 -98 -118.5 -191t-186.5 -93h-569 q-10 0 -22.5 6t-20.5 8q-131 12 -221 86q-51 41 -90 115q-45 78 -45 145zM309 733h320v-389l14 10l21 6l-23 -6l315 -10v391h316v326q-25 0 2 18h-320v363l-319 -4q2 -2 -8 4v-365h-316v-315q6 0 8 -10q0 -10 -10 -19zM614 973l134 28l43 138l57 -123l24 -94l52 -107l-58 16 l-67 29l-86 -67l4 112zM627 975l121 26l40 134q4 -8 60 -119l131 -23l-111 -71l74 -142l-84 43l-55 39l-111 -102l25 145z" />
<glyph unicode="T" horiz-adv-x="712" d="M4 694q0 51 5 125t19.5 157t39 165t64.5 146.5t95.5 105.5t132.5 41q78 0 133.5 -39t93.5 -101.5t60.5 -141.5t34.5 -159t16 -152.5t4 -123.5q0 -49 -5 -122t-20 -153t-41 -158.5t-66 -142t-96 -102.5t-132 -39q-74 0 -127 38t-91 99.5t-61.5 137t-36 153.5t-17.5 147.5 t-5 118.5zM92 702q0 -35 3 -94t11.5 -126.5t24.5 -136.5t44 -125t68 -91t97 -35q59 0 103 36t75 93.5t49.5 128t29.5 140t14 130t3 99.5q0 41 -2 102.5t-10 130t-24.5 137t-45 123t-71.5 89t-103 34.5q-57 0 -99 -36.5t-71.5 -95t-48 -130t-29 -142.5t-14.5 -132.5t-4 -98.5 z" />
<glyph unicode="U" horiz-adv-x="1761" d="M12 459q0 51 45 112q145 74 148 86q63 39 63 240q0 49 -4 164t-4 174q0 131 16 219q37 193 70 260q27 55 76 68q100 29 113 35q124 21 286 21q42 0 86 -1q338 -10 397.5 -101t86.5 -261q49 -297 59 -334q10 -43 12 -188.5t13 -182.5q25 -82 51 -106q16 -14 84 -39 q147 -53 147 -148q0 -37 -20 -78q-3 -67 -122 -67h-20q-172 -12 -225 -25.5t-133 -73.5q-88 -66 -108.5 -125t-36.5 -67q-39 -20 -213 -31q-18 -1 -35 -1q-137 0 -205 71q-66 76 -131 153q-106 86 -334 86q-43 0 -90 -2q0 10 -36 54.5t-36 87.5z" />
<glyph unicode="V" horiz-adv-x="1560" d="M14 477q0 229 176 598q186 385 441 645q295 303 567 303q195 0 287 -206q65 -144 65 -310q0 -287 -188 -649q-180 -350 -440 -590q-279 -258 -512 -258q-182 0 -297 162q-98 139 -99 305zM186 510q0 -96 58 -193q61 -102 133 -108q10 -1 20 -1q186 0 418 247 q211 223 379 551q162 315 162 479q0 23 2 63.5t2 61.5q0 139 -117 262q-33 8 -63 8q-68 0 -133 -35q-23 -12 -101 -63q-393 -375 -540 -590q-219 -324 -220 -682z" />
<glyph unicode="W" horiz-adv-x="2054" d="M16 16v1612h963v-1612h-963zM211 246q8 0 48 -19.5t77 -19.5q176 0 332 145q186 176 186 467q0 125 -86 336q-113 272 -266 272h-291v-1181zM1077 16v1612h961l2 -1612h-963zM1163 836q0 -90 92 -316q112 -276 233 -276h3h342v1183h-317q-133 0 -250 -243 q-102 -211 -103 -348z" />
<glyph unicode="X" horiz-adv-x="1925" d="M10 512l953 1212l901 -1212h-1854zM16 14v281h1891v-281h-1891z" />
<glyph unicode="Y" horiz-adv-x="2254" d="M4 453l1098 1116l1141 -1116h-2239zM51 10v148h2142v-148h-2142z" />
<glyph unicode="Z" horiz-adv-x="2412" d="M16 -2q78 203 93 223l2240 -4q0 -31 22.5 -111.5t22.5 -109.5zM86 477l1157 1153l1157 -1153h-2314zM496 659h1495l-770 736q-442 -381 -725 -736z" />
<glyph unicode="[" horiz-adv-x="1767" d="M14 14v1575l70 -63l743 -498v569l86 -67l842 -735l-842 -701l-86 -82v578z" />
<glyph unicode="\" horiz-adv-x="1959" d="M6 35v1356q20 0 47 10t37 33l733 -611l82 -82l4 -12q4 -12 4 -16q0 -31 -15 -44.5t-48 -37.5l-748 -625h-6q-8 0 -20.5 4t-26.5 10.5t-25.5 10.5t-17.5 4zM117 166l657 547l-657 555v-1102zM1059 35v1356q20 6 40.5 17t41.5 11h14l762 -637q23 -16 32 -42.5t9 -53.5 l-4 -4q-2 -2 -4 -5t-4 -5l-762 -637q-4 -4 -10.5 -9.5t-14.5 -9.5q-8 -6 -18 -10l-27 14q-4 0 -27.5 7.5t-27.5 7.5zM1169 172q4 6 28 21.5t28 21.5q23 18 69.5 57t105 88.5t123 103.5t123 103t105.5 88t70 58l-29 28l-623 519v-1088z" />
<glyph unicode="]" horiz-adv-x="2557" d="M16 1636l1229 -2l-559 -1597zM1331 37l621 1603l588 -1632h-1141q-68 -14 -68 29z" />
<glyph unicode="^" horiz-adv-x="1204" d="M4 655v15h14q29 -39 64 -63.5t84 -24.5q29 0 54.5 14t25.5 45q0 27 -16.5 44t-42 28.5t-55.5 20.5t-55.5 22.5t-42 33t-16.5 50.5q0 27 13.5 44t33 27.5t43 13.5t46.5 3q27 0 51 -4t49 -4q10 0 14 4t15 4h8q2 -6 4 -19.5t3 -29t3 -28.5t4 -20v-10q-18 0 -32.5 13.5 t-31 29t-35 28.5t-44.5 13q-25 0 -51.5 -9t-26.5 -38q0 -10 3 -19.5t13 -13.5q8 -4 44 -17t77 -33.5t74 -48.5t33 -62q0 -31 -14.5 -50.5t-38 -32t-51 -16.5t-52.5 -4q-27 0 -52.5 3t-53.5 3q-12 0 -16.5 -3t-16.5 -3h-6q-2 6 -5.5 19.5t-6.5 28t-6 27.5t-5 19zM367 567 q0 10 8 13.5t19.5 4.5t19.5 3t8 10v293q0 6 -7 10t-16.5 7t-17.5 4t-10 1v7h360v-80q-4 0 -14 9t-28.5 20.5t-45.5 19.5t-63 8h-56l-14 -6v-117h139q12 0 16.5 7t6.5 14.5t6 14.5t16 7v-125h-14q0 10 -7 27.5t-24 17.5h-139v-139h170q16 0 25.5 8t15.5 19.5t13 21.5t18 17 q2 0 6 -2t8 -7v-4v-2q0 -4 -5 -21.5t-9 -23.5q-2 -4 -3 -10t-6 -12q-4 -8 -6 -15h-370zM403 319l78 35l125 -237l127 237l82 -35l-166 -315h-6q-10 0 -18.5 3t-18.5 3t-17 -3t-16 -3q-8 0 -12 6zM408 1122v2l161 310q4 -4 17.5 -8.5l19.5 -6.5h2q10 0 17.5 3t17.5 3h6 l162 -301v-2q0 -20 -28.5 -30.5t-45.5 -10.5h-6l-125 232l-119 -226q-2 -6 -10 -6q-4 0 -15 3t-23.5 9.5t-21.5 13.5t-9 15zM797 567v8q18 4 37.5 11.5t19.5 31.5v265q0 8 -7 13t-16.5 8t-18.5 5t-15 4v7h204v-7q-2 0 -11 -1t-20.5 -4t-19.5 -7t-8 -10v-293h156 q29 0 53.5 22.5t40.5 43.5h4q8 0 10 -9q-2 -8 -13 -35.5l-15 -37.5l-4 -9q-2 -4 -5 -6h-372z" />
<glyph unicode="_" horiz-adv-x="1961" d="M12 1509h238q25 0 112 -254q51 -152 156 -454q106 227 260 708h260l-514 -1433zM946 37l490 1481q147 -401 293 -803q219 -612 215 -684q-12 6 -17 6q2 -4 -2 -10q-25 2 -110 -4q-94 -6 -86 -7q-25 47 -49.5 93.5t-55.5 140.5q-70 205 -174 495q-23 -78 -141 -383 q-20 -51 -140 -325h-223z" />
<glyph unicode="`" horiz-adv-x="2400" d="M12 700v158h619v-158h-619zM762 774q0 315 117.5 502.5t306.5 187.5q166 0 299 -196q137 -204 137 -480q0 -18 -42 -294.5t-44 -403.5q-10 -27 -41 -51.5t-63 -24.5q-27 0 -56.5 18.5t-36.5 18.5q0 10 -7 28.5t-7 39.5q0 16 4 39q8 39 64.5 132t64.5 142t47 186 q31 113 31 158q0 205 -96 369q-102 172 -248 172q-238 0 -318 -316q-2 4 -6 9q-8 -23 -14 -68q-10 -59 -10 -117q0 -141 53 -231q49 -174 53 -184q33 -98 84 -158q18 -70 19 -109q0 -37 -19 -88q-6 0 -38.5 -18.5t-57.5 -18.5q-33 0 -70 31t-43 72q-4 25 4 106q8 90 5 138 q-6 66 -39 223q-33 150 -33 186zM1790 686v180h223v338h141v-315h234v-189h-223v-360h-137v346h-238z" />
<glyph unicode="a" horiz-adv-x="2273" d="M0 215v1006q0 33 15.5 69.5t41 68.5t58 53.5t69.5 21.5h1911q37 0 70 -21.5t58.5 -53.5t40.5 -69t15 -69v-1006q0 -41 -18 -80t-48 -68.5t-69 -48t-80 -18.5h-1849q-4 0 -23.5 3t-27.5 7q-33 8 -62.5 27.5t-52 47.5t-36 61.5t-13.5 68.5z" />
<glyph unicode="b" horiz-adv-x="2682" d="M18 309v971q0 82 162 203q156 117 246 121l1669 22q168 0 354 -90q223 -106 224 -252v-958q0 -70 -163 -195t-247 -125h-1833q-84 0 -248 123t-164 180zM203 1049q0 -94 10 -207l457 237q6 -70 10 -182h1331q0 150 21 174q158 -88 235 -129q139 -71 227 -102l-8 401 q2 82 -137 150q-117 57 -192 57h-1622q-332 0 -332 -399zM205 375q-2 -109 244 -170q166 -43 292 -43l1473 22q37 0 149 64q125 74 123 121v391l-452 -221q-23 56 -23 131q0 21 2 43l-1114 26q-31 0 -99.5 -2t-109.5 -2q-4 -61 -20 -190q-119 68 -238 135q-135 74 -221 102z " />
<glyph unicode="c" horiz-adv-x="1597" d="M10 0v1421h1589v-1421h-1589z" />
<glyph unicode="d" horiz-adv-x="4032" d="M10 125v1186q0 16 15.5 37.5t38 40t47 32t41.5 13.5h3717q27 0 54.5 -15.5t50 -38t37.5 -51.5t15 -55v-1114q0 -27 -15 -55.5t-37.5 -51t-50.5 -38t-54 -15.5h-3701q-12 2 -21 6q-8 4 -17 6t-15 6q-12 6 -30.5 17.5t-35 26t-28 31t-11.5 32.5z" />
<glyph unicode="e" horiz-adv-x="1359" d="M8 383q0 172 209 272q145 70 240 70q51 0 133 -16q92 -18 143 -45q10 10 21 16q4 4 8 6q8 -2 14 -4q-10 -20 -22 -10q-9 9 -9 42q0 19 3 46l2 1202q27 0 98 -31q82 -37 94 -41q74 -109 193 -209q131 -111 155 -141q64 -79 64 -194q0 -139 -86 -277q-113 -178 -140 -270 q-76 -70 -100 -70q-2 20 -2 49q0 74 18.5 222.5t18.5 175.5q0 188 -6 221q-18 86 -119 231h-94l2 -1409l-47 2l51 -2q-57 -106 -184 -164q-100 -45 -209 -45q-176 0 -301 88q-147 102 -148 285z" />
<glyph unicode="f" horiz-adv-x="1740" d="M10 256q0 74 45 117t107.5 66.5t131 34.5t118.5 22q4 2 10 4q12 4 12 10l15 584q2 33 29.5 61.5t69.5 52t93 43t100.5 34.5t91 25.5t64.5 18.5l592 115h168q23 0 42 -26.5t25 -43.5q4 -41 4.5 -75.5t0.5 -71.5v-63.5t-5 -69.5v-713q-31 -61 -78 -99t-95 -56.5t-92 -23.5 q-31 -4 -53 -4q-8 0 -15 1q-55 0 -114.5 13t-111 41t-84 73t-32.5 108v8q0 82 39 123q42 43 104.5 62.5t134.5 29t131 27.5q2 37 3 93.5t2 120t2 128t1 117.5v49l-8 8h-22q-23 0 -86.5 -5t-146.5 -17.5t-173 -31t-164.5 -45t-124 -60t-49.5 -76.5v-766q-29 -63 -75 -100.5 t-94 -55.5t-94 -23q-32 -3 -56 -3q-10 0 -19 1q-53 0 -113.5 12.5t-111.5 40t-85 72.5t-34 113zM63 242q0 -53 31 -88t76 -54.5t96 -28t92 -8.5q7 -1 16 -1q16 0 42 2q39 4 82 18t83 44t62 81v797q0 41 53.5 74.5t133 60t176 47t182.5 34t149.5 19.5t79.5 6h58q10 -2 20 -11 t16 -17v-156v-102.5t-1 -90.5t-3 -92t-4 -106q0 -25 -29.5 -35t-72.5 -14.5t-95.5 -9.5t-97.5 -21.5t-77.5 -50t-36.5 -93.5q0 -57 28.5 -94t72.5 -59.5t96 -31.5t100 -9q43 0 85 5t78.5 19.5t67.5 42t49 70.5q2 90 3 196.5t2 218t2 226.5t1 219v97q0 18 -12 33.5t-35 17.5 q-4 2 -28.5 2t-30.5 -2q-35 0 -77 -3t-73 -8l-567 -120q-20 -6 -59 -15.5t-82 -24t-87 -32.5t-78 -39.5t-51.5 -46.5t-6.5 -51v-561q-2 -2 -5 -7q-2 -4 -8 -10q-27 -18 -75 -30.5t-99 -23.5t-97 -21.5t-69 -22.5q-23 -4 -38 -19.5t-23 -36t-11.5 -43t-3.5 -40.5z" />
<glyph unicode="g" horiz-adv-x="1912" d="M0 0v1444h127v-713l893 674v-674l872 684v-1395l-868 699v-686l-893 674v-707h-131z" />
<glyph unicode="h" horiz-adv-x="2254" d="M23 291v880h770v-880h-770zM834 61l725 1409l108 -69l-702 -1387q-3 -1 -7 -1q-36 0 -124 48zM1430 254l6 145h809v-141zM1493 573l348 678l346 -678h-694z" />
<glyph unicode="i" horiz-adv-x="2541" d="M-2 567q8 4 18.5 30t20.5 58.5t19.5 62.5t17.5 44q10 12 20 44t10 48q4 -4 9.5 8t10.5 29.5t11 32t10 14.5q27 0 57.5 -19.5t53.5 -27.5q41 -14 82 -28.5t82 -24.5l12 -7q16 -14 41 -17t47 -11q4 0 17.5 -9.5t17.5 -9.5q49 -16 84 -25t57 -57q2 -4 6.5 -15t9.5 -23.5 t12 -21.5t13 -9h101v-113h-166v-469h985q6 0 21.5 15.5t30.5 36t29.5 40t18.5 25.5l35 35q-2 2 16.5 24.5t41 50t43 53t22.5 31.5q6 -4 18.5 9.5t25.5 32t23.5 36t14.5 21.5h12q8 6 19.5 19.5t21.5 28.5t19.5 29.5t15.5 22.5q2 -2 11 6t18.5 19.5t16.5 24t7 16.5 q-16 0 -37.5 -6.5t-44 -15.5l-45 -18t-37.5 -14q-66 -23 -131 -41t-127 -40q-23 -10 -35 -18.5t-34 -12.5h-25q-4 0 -11 -8.5t-12 -8.5h-24q-16 -4 -34.5 -14t-35.5 -10q-10 0 -26.5 15.5t-35 34.5t-36.5 34.5t-31 15.5h-123v113h177l10 4l88 -88q125 41 225 78 q43 14 85 28.5t78 26.5t60.5 21.5t32.5 11.5h25l10 10q8 6 26.5 13t39 12.5t40 9.5t29.5 6l6 6q6 4 39 15.5t70 22.5t66.5 21.5t29.5 12.5h31q27 0 48 -7.5t40 -33.5q4 -10 8 -19q8 -20 8 -22v-41v-37q0 -2 -4 -10q-2 -4 -2 -6h-111q0 23 -3 35t-21 12q-10 0 -37 -31 t-54.5 -65.5t-51 -62.5t-27.5 -24q-4 -4 -14.5 -20t-14.5 -20q-2 -2 -11 -12.5t-19.5 -20.5t-17.5 -20.5t-5 -12.5q-31 -41 -62.5 -77t-66.5 -75q-2 2 -17.5 -16t-32 -41.5t-31.5 -44t-17 -22.5q-4 0 -9 -3q-8 -4 -4 -8q-10 -10 -34.5 -36.5t-51 -58.5t-48 -60.5 t-23.5 -38.5q-6 2 -13 -4q-4 -4 -6 -9h-1173v430q-43 14 -76 27q-29 10 -52.5 18.5t-23.5 12.5v6h-29l-6 6q-18 10 -74.5 28.5t-118 39t-111.5 39t-54 28.5zM156 637q0 -4 49 -22.5t111.5 -40t119 -43t72.5 -29.5q2 14 11 36.5t18.5 45t16.5 43t7 28.5v7q-41 4 -97 28.5 t-97 40.5q-31 14 -63 21.5t-60 19.5q-4 0 -14.5 6t-14.5 6q-4 -2 -9 -13t-9 -25.5t-7.5 -26.5t-3.5 -17q-4 -14 -17 -30.5t-13 -34.5zM907 444q0 31 10.5 59.5t36.5 45.5v921q0 6 7.5 19.5t16.5 27t20.5 22.5t19.5 9h72q8 0 20 -9t22.5 -22.5t18.5 -26.5t8 -20v-170h246v-81 h-246v-123h246v-88h-246v-123h246v-82h-246v-242q27 -35 40 -68.5t13 -78.5v-17q-18 -61 -63 -88.5t-107 -27.5q-72 0 -103.5 51t-31.5 112zM989 438q-1 -4 -1 -7q0 -23 24 -41q26 -21 53 -21q23 0 38 20.5t15 42.5q0 31 -20.5 48.5t-20.5 33.5v916q-2 4 -6 10l-7 7t-5 7 l-6 6l-4 -6q-6 -6 -9 -14q-2 -6 -4 -10v-932q-18 -10 -30.5 -27t-16.5 -33zM1548 426q0 6 4 6t4 -6t-4 -6t-4 6zM1677 67.5q0 6.5 4 6.5t4.5 -6.5t-4.5 -6.5q-4 0 -4 6.5zM1759 168q0 -6 4 -6t4 6t-4 6t-4 -6zM1853 279q0 -5 5 -5q4 0 4 5.5t-4 5.5q-5 0 -5 -6zM1923 356 q0 -6 4 -6t4 6t-4 6t-4 -6zM1976 426q0 -6 4 -6t4 6t-4 6t-4 -6zM2052 332q0 6 4 6t4 -6t-4 -6t-4 6zM2058 526q0 6 4 6t4 -6t-4 -6t-4 6zM2112 596q0 6 4 6t4 -6t-4 -6t-4 6zM2380 322q0 23 12 40t23 35q12 23 17 53.5t5 57.5h53v-76q14 -23 34 -59.5t20 -63.5 q0 -31 -26 -53.5t-56 -22.5q-10 0 -21.5 2.5t-19.5 2.5q-23 14 -32 34.5t-9 49.5zM2505 238.5q0 5.5 4 5.5t4 -5.5t-4 -5.5t-4 5.5z" />
<glyph unicode="j" horiz-adv-x="954" d="M10 0v1421h269v-1421h-269zM670 0v1421h268v-1421h-268z" />
<glyph unicode="k" horiz-adv-x="1929" d="M23 307v1116l555 -538q0 -16 -29 -45q-37 -37 -39 -41q-305 -332 -487 -492zM643 123l469 1573q16 0 47 -39q24 -31 51 -62l-485 -1591q-33 37 -82 119zM1327 190v1260h184v-1262q-18 0 -59 -6t-61 -6q-37 0 -64 14zM1726 156v1294h191v-1225q-24 -69 -61 -69h-3h-127z " />
<glyph unicode="l" horiz-adv-x="1945" d="M18 33v1247l734 -416q12 0 31.5 -14t21.5 -14q8 0 6 32q12 8 10 54q-14 324 -16 397l901 -496l31 31q-10 41 -11 549l208 -2v-1364l-177 -2q1 9 1 19q0 32 -5 79q-8 88 -8 326q-6 51 -8 51q-27 -20 -43 -21l-772 -413l-95 -62q-8 125 -16 287q-2 84 -8 95.5t-43 11.5z " />
<glyph unicode="m" horiz-adv-x="2390" d="M4 29l4 657h252q51 0 88 -94q33 -76 33 -133q0 -119 -68 -183q-57 -53 -133 -53q-23 0 -43 6q-18 -45 -18 -137q0 -28 2 -61zM51 1133l494 387q8 -28 8 -88v-25q-1 -54 -1 -83.5t1 -33.5q0 -31 6 -57l348 287v-801l-350 258q-18 -78 -18 -181q0 -37 2 -77zM127 377 q23 -12 47 -12q41 0 76 36q27 33 39 74q-18 29 -23 66h-139v-164zM465 31v655h289h2q62 0 100 -125v-530h-106q2 63 2 127q-2 78 -52 100h-122q-16 -51 -17 -227h-96zM567 403h174q8 12 9 41q0 18 -3.5 53.5t-3.5 43.5h-176v-138zM1374 719v801l281 -258h49q18 84 18 258 l508 -416l-508 -385q-2 74 -4 147q-4 82 -20 109zM1407 342q0 178 68 281q61 94 159 94q94 0 164 -123q66 -111 66 -238q0 -152 -70 -255t-160 -103q-78 0 -149 92q-78 104 -78 252zM1497 342q0 -68 52.5 -134.5t103.5 -66.5q27 0 73 77t46 124q0 39 -19.5 104.5t-19.5 94.5 q-6 0 -34 16t-54 16q-53 0 -100.5 -77.5t-47.5 -153.5zM1919 342q0 131 79 253t169 122q51 0 123 -81t86 -147h-99h-1q-14 0 -53 41q-40 43 -66 43q-61 0 -99 -75q-31 -63 -30 -142q0 -133 51 -170q20 -16 78 -16q72 0 47 -2q14 2 26 20q-10 47 -37.5 86t-33.5 64h215v-334 q-51 53 -97 53q-31 0 -75.5 -29.5t-63.5 -29.5q-82 0 -151 123q-68 115 -68 221z" />
<glyph unicode="n" horiz-adv-x="2000" d="M18 504v1401h414l-4 -1401h-410zM154 1741l6 -1110q51 -4 121 -8q10 0 10 10l-4 1102zM539 522l4 1383h372v-1401zM645 647h139v1120h-139v-1120zM924 18l69 117q92 123 254 354q0 16 70 19q-61 0 -240 8l-10 1389h412v-1375q-14 -14 -83 -14h-18q-82 2 -114 6q2 0 -7 -6 q113 -158 336 -467q-27 -27 -182 -35q-56 -2 -129.5 -2t-163.5 2q-96 2 -194 4zM1165 627q2 45 23 45q8 0 20 -13l158 7l-4 1128q-145 6 -154 6q-16 0 -16 -16l8 -1118v-20q0 -84 -16 -85q-10 18 -19 66zM1538 602v1303h444v-1401h-395q-49 0 -49 98zM1667 633h182v1153 h-182v-1153z" />
<glyph unicode="o" horiz-adv-x="1464" d="M8 4v1473h115v-1473h-115zM14 6v123h1383l-4 -123h-1379zM45 1479l1327 4l25 -123l-1348 6zM1317 10v1473l131 -4v-1469h-131z" />
<glyph unicode="p" horiz-adv-x="2123" d="M-1 948q-1 0 -1 1q0 7 37 53q37 48 75 48l11 -1l1896 8h3q87 0 87 -115l4 -833q-33 -76 -86 -93q-14 -4 -94 -4h-1763q-129 0 -160 97v841q-2 -2 -9 -2zM106 129l1907 4v795h-1907v-799z" />
<glyph unicode="q" horiz-adv-x="2660" d="M8 352q0 80 92 211q106 156 228 156q25 0 47 -8q1 16 1 33q0 124 -50 337q18 0 69 -20.5t84 -20.5q29 0 123 97q111 117 162 149q119 76 282.5 125t292.5 49q137 0 256 -33q158 -43 308 -133q170 -102 270 -235q49 -61 104 -199q49 -121 99 -168q12 -12 64 -22.5 t81 -38.5q88 -84 111 -139q12 -35 12 -127q0 -150 -101.5 -250.5t-248.5 -100.5q-113 0 -238 99q-137 111 -137 239q0 125 98 221q96 78 193 156q-117 311 -379 463q-221 127 -516 127q-387 0 -678 -318q0 -41 96 -88l-217 -190q14 -27 64 -59q66 -45 67 -48 q41 -35 76 -121.5t35 -129.5q0 -129 -103 -238q-109 -113 -247 -113q-150 0 -275 101.5t-125 236.5zM154 365q0 -74 79.5 -154t174.5 -80q76 0 152.5 81t76.5 175q0 53 -82 129q-88 82 -172 82q-88 0 -158.5 -78t-70.5 -155z" />
<glyph unicode="r" horiz-adv-x="1939" d="M20 885l1088 807q-12 -109 -14 -160q-4 -190 -17 -461l846 623v-1678l-848 596q0 -426 8 -596z" />
<glyph unicode="s" horiz-adv-x="1968" d="M6 686l14 27q0 6 -4 17t-10 11l70 68q2 2 40 33.5t97 82t133 113t148.5 125t143.5 118.5t118 97q10 4 29.5 20.5t25.5 20.5h6q8 0 20.5 -4t27 -10t25.5 -10t17 -4v-1356q-6 0 -19.5 -3t-29.5 -8.5t-31.5 -8.5t-23.5 -3l8 -6l-762 637q-12 6 -26 25q-8 8 -17 18zM139 713 l658 -547v1102zM1047 686q10 10 11 21.5t1 21.5t2 20.5t12 18.5l776 651q6 6 17 11l12 4q20 -6 19 -9.5t-11 -6.5t-21.5 -4t-9 -4t25 -7t79.5 -12v-1356q-20 0 -47 -14.5t-43 -14.5h-6zM1198 713l55 -56l582 -485v1088l-637 -533v-6v-8z" />
<glyph unicode="t" horiz-adv-x="1349" d="M14 739l684 1119q18 0 21 -7q8 -14 14 -30q90 -184 293 -537q207 -360 303 -551q4 -2 4 -8q-41 -23 -63 -23q-53 0 -162 160q-45 66 -422 664q-61 -86 -123 -172q45 74 49 84v2q-90 -143 -440 -744zM16 18l691 1125l632 -1127h-188l-446 727q-84 -86 -224 -333 q-209 -371 -221 -392h-244zM1090 883l241 -158l-98 -72z" />
<glyph unicode="u" horiz-adv-x="1724" d="M18 84v78q14 20 50 57q592 137 1488 369q39 -2 39 18l113 17v-605h-1571h-3q-46 0 -116 66z" />
<glyph unicode="v" horiz-adv-x="1417" d="M0 913h186v-6q-4 0 -23.5 -4t-19.5 -18v-8l125 -228l117 213q2 4 4 10q4 8 4 13v4q0 14 -20.5 16t-24.5 2v6h135q0 -10 -17 -15t-22 -13l-190 -330h-14q-33 57 -55.5 107.5t-47 94.5t-55.5 80.5t-78 69.5zM510 1118l162 309h6q10 0 17 -4t16 -4h4q6 4 19.5 8.5t17.5 6.5 l161 -308v-4q0 -8 -9 -15t-21.5 -13.5t-23.5 -9.5t-15 -3q-8 0 -10 9l-119 223l-125 -234zM518 305v14q12 6 23 13q10 4 18 8l16 8h9h6l125 -229l125 237l78 -37l-158 -307q-4 -8 -12 -8t-16.5 4t-20.5 4q-10 0 -18.5 -4t-16.5 -4h-4zM518 745q0 47 18.5 80t49 54.5t70.5 32 t81 10.5q88 0 150.5 -44t62.5 -137q0 -92 -63.5 -139t-153.5 -47q-43 0 -82 12.5t-68.5 37t-47 60t-17.5 80.5zM598 733q0 -66 35 -107.5t104 -41.5q70 0 100.5 44t30.5 109q0 63 -28.5 112.5t-102.5 49.5t-106.5 -48t-32.5 -118zM1001 569v6q4 0 13.5 1.5t19.5 4.5t18.5 9 t8.5 16v279q0 6 -12 10q-6 2 -11 4q-4 0 -17 4t-20 4v6h205v-6q-14 -4 -27.5 -5t-23.5 -11q-4 0 -4 -4l-2 -2v-287l6 -6h55h56.5t47 6t42 19.5t41.5 39.5h16q-2 -4 -6 -18t-10 -29.5t-11.5 -28t-9.5 -12.5h-375z" />
<glyph unicode="w" horiz-adv-x="1533" d="M0 1563q35 59 117 102l1401 -813l-1379 -844h-2q-18 0 -76 27q-27 12 -55 24zM115 1513l18 -1353l1147 692z" />
<glyph unicode="x" horiz-adv-x="2709" d="M18 1008q-2 4 13 12q119 57 350 192q287 168 348 203l90 -12l8 -797q-25 -14 -71 -53l-733 436q0 -4 -5 19zM950 1102q0 119 215 213q158 70 408 117q179 36 230 36h3q221 0 471 -86q310 -106 410 -280l-418 -686h-94q-29 0 -163 69.5t-163 69.5h-127q0 -6 -9 -16.5 t-9 -42.5q0 -35 37 -107t74 -108q35 -14 106 -52q10 -18 21 -36q14 -27 14 -62q0 -127 -137 -127q-125 0 -125 98q0 23 12 78q8 45 4 62q-41 150 -133 266q-123 -70 -170 -70q-35 0 -59 8q-37 68 -238 379q-160 250 -160 277zM1065 1065l326 -510q100 0 153 53l-303 606 q-31 0 -176 -71v-78zM1096 1655v88h321v-88h-321zM1339 1278l340 -655q32 22 110 22h7q94 0 244 -53q164 -57 184 -60l348 584q-80 72 -295 162q-231 98 -356 98q-365 0 -582 -98zM1671 1661v86h320v-86h-320zM2279 1657v90h308v-90h-308z" />
<glyph unicode="y" horiz-adv-x="1875" d="M10 1495h1065q-18 -17 -18 -37l-510 -1440zM188 1368l359 -1051l334 1051h-693zM756 29l514 1437l590 -1441zM907 156h766l-399 1067z" />
<glyph unicode="{" horiz-adv-x="1880" d="M14 139q0 23 297 484q303 469 549 825q31 45 86 45q72 0 250 -264q72 -104 154 -244q41 -70 84 -141q121 -174 370 -547q62 -97 62 -152q0 -45 -37 -79.5t-82 -32.5l-1536 -15q-197 -10 -197 121zM199 176h1482q1 13 17 33l-752 1102l-747 -1086v-49zM842 995 q31 72 47 88.5t57 16.5q78 0 107 -99l-74 -532q-6 0 -31.5 -6t-32.5 -6zM870 307q0 14 31 76h107q0 -6 8 -23.5t8 -37.5q0 -78 -84 -78q-20 0 -45 20.5t-25 42.5z" />
<glyph unicode="|" horiz-adv-x="1863" d="M23 10l890 1856q10 -20 39 -51q10 -25 125 -252l772 -1553h-1826zM178 117h1493l-749 1530q-229 -489 -744 -1530zM481 328l445 917q41 -47 58 -78.5t34 -62.5q92 -143 203 -383q163 -352 186 -393h-926zM618 414h637l-315 645z" />
<glyph unicode="}" horiz-adv-x="2037" d="M14 602q37 98 97 98q37 0 69.5 -33.5t42.5 -66.5q115 -260 336 -436t428 -176q240 0 455 141q229 152 360 424q33 74 33 262q0 324 -186 520q-100 106 -336 226q-172 86 -156 151q0 80 70 80q31 0 61 -12q313 -92 526.5 -374t213.5 -593q0 -340 -195 -586 q-158 -201 -422 -313q-217 -92 -407 -92q-659 0 -990 780zM53 1024q-4 111 0 133q18 78 154 256q150 197 260 250q74 37 145 74q98 47 174 55q0 6 2 8q10 0 30 -40t20 -79q0 -48 -37 -75q-451 -182 -578 -582q-31 -68 -104 -68q-61 0 -66 68zM154 838q0 29 174 28 q117 0 651 -26v1003q59 14 59 -260q0 -252 -41 -770l-831 6q-12 10 -12 19z" />
<glyph unicode="~" horiz-adv-x="2465" d="M14 752v182q168 -8 244 -2q8 115 10 436l140 -2q4 -260 2 -434q53 -8 270 0v-180q-51 2 -133 0q-100 -4 -135 -4q-4 -166 -11 -504h-127v508q-133 6 -260 0zM850 737q0 283 133 510q147 252 391 297l393 -114q33 29 113 28q59 0 107 -51q55 -57 55 -152q0 -90 -51 -137 q-37 -35 -78 -35l-502 260q-160 20 -287 -135q-137 -168 -137 -428q0 -246 154 -418q131 -145 254 -145q90 0 221 82q82 53 201 154q98 82 106 82q49 0 84 -57.5t35 -131.5q0 -106 -53 -166q-43 -49 -109 -49q-20 0 -46 14.5t-48 14.5q-20 0 -195.5 -73t-195.5 -73 q-182 0 -361 226q-184 233 -184 497zM2333 250v1118h123v-1118h-123z" />
<glyph horiz-adv-x="1863" d="M23 8v43l913 1827l913 -1870h-1826zM199 143q0 -12 10 -11t14 -1l1454 12l-741 1454zM403 270l533 1080l534 -1080h-1067zM598 420h668l-330 659z" />
<glyph unicode="&#xad;" d="M10 1264q16 43 78 100q59 51 117 102q4 88 31 174q35 117 86 129q20 -10 71 -55q-16 -20 -31 -76q-18 -72 -28 -102q47 -29 231 -29v-137q-27 4 -49 4q-94 0 -94 -63q0 -43 14.5 -134.5t14.5 -148.5q25 -14 100 -41q66 -21 78 -35q4 -74 -80 -108q-158 -68 -187 -88v-140 q53 -61 205 -61v-137q-123 -14 -123 -137q0 -20 4.5 -67.5t4.5 -70.5q0 -33 -7 -55h-110v227q-25 31 -53 31q-43 0 -107 -76h-106q0 20 -15.5 68.5t-15.5 64.5l178 111v168q-16 20 -63 37q-63 25 -86 39q86 111 165.5 149.5t90 51t10.5 133.5q0 117 -80 202q-41 6 -143 -112 q-66 82 -101 82zM748 963q0 274 38 475q78 403 289 403q158 0 369 -153q170 -125 209 -197q84 -156 110 -287q23 -107 23 -297q0 -348 -244 -626q-236 -270 -512 -271q-172 0 -244 475q-39 250 -38 478zM897 963q0 -266 10 -373q27 -229 115 -395l74 -43q68 -2 266 131 q135 88 227 313q78 193 78 330q0 225 -168 481q-190 289 -424 289q-106 0 -151 -297q-27 -186 -27 -436z" />
<glyph unicode="&#x2000;" horiz-adv-x="1011" />
<glyph unicode="&#x2001;" horiz-adv-x="2023" />
<glyph unicode="&#x2002;" horiz-adv-x="1011" />
<glyph unicode="&#x2003;" horiz-adv-x="2023" />
<glyph unicode="&#x2004;" horiz-adv-x="674" />
<glyph unicode="&#x2005;" horiz-adv-x="505" />
<glyph unicode="&#x2006;" horiz-adv-x="337" />
<glyph unicode="&#x2007;" horiz-adv-x="337" />
<glyph unicode="&#x2008;" horiz-adv-x="252" />
<glyph unicode="&#x2009;" horiz-adv-x="404" />
<glyph unicode="&#x200a;" horiz-adv-x="112" />
<glyph unicode="&#x2010;" d="M10 1264q16 43 78 100q59 51 117 102q4 88 31 174q35 117 86 129q20 -10 71 -55q-16 -20 -31 -76q-18 -72 -28 -102q47 -29 231 -29v-137q-27 4 -49 4q-94 0 -94 -63q0 -43 14.5 -134.5t14.5 -148.5q25 -14 100 -41q66 -21 78 -35q4 -74 -80 -108q-158 -68 -187 -88v-140 q53 -61 205 -61v-137q-123 -14 -123 -137q0 -20 4.5 -67.5t4.5 -70.5q0 -33 -7 -55h-110v227q-25 31 -53 31q-43 0 -107 -76h-106q0 20 -15.5 68.5t-15.5 64.5l178 111v168q-16 20 -63 37q-63 25 -86 39q86 111 165.5 149.5t90 51t10.5 133.5q0 117 -80 202q-41 6 -143 -112 q-66 82 -101 82zM748 963q0 274 38 475q78 403 289 403q158 0 369 -153q170 -125 209 -197q84 -156 110 -287q23 -107 23 -297q0 -348 -244 -626q-236 -270 -512 -271q-172 0 -244 475q-39 250 -38 478zM897 963q0 -266 10 -373q27 -229 115 -395l74 -43q68 -2 266 131 q135 88 227 313q78 193 78 330q0 225 -168 481q-190 289 -424 289q-106 0 -151 -297q-27 -186 -27 -436z" />
<glyph unicode="&#x2011;" d="M10 1264q16 43 78 100q59 51 117 102q4 88 31 174q35 117 86 129q20 -10 71 -55q-16 -20 -31 -76q-18 -72 -28 -102q47 -29 231 -29v-137q-27 4 -49 4q-94 0 -94 -63q0 -43 14.5 -134.5t14.5 -148.5q25 -14 100 -41q66 -21 78 -35q4 -74 -80 -108q-158 -68 -187 -88v-140 q53 -61 205 -61v-137q-123 -14 -123 -137q0 -20 4.5 -67.5t4.5 -70.5q0 -33 -7 -55h-110v227q-25 31 -53 31q-43 0 -107 -76h-106q0 20 -15.5 68.5t-15.5 64.5l178 111v168q-16 20 -63 37q-63 25 -86 39q86 111 165.5 149.5t90 51t10.5 133.5q0 117 -80 202q-41 6 -143 -112 q-66 82 -101 82zM748 963q0 274 38 475q78 403 289 403q158 0 369 -153q170 -125 209 -197q84 -156 110 -287q23 -107 23 -297q0 -348 -244 -626q-236 -270 -512 -271q-172 0 -244 475q-39 250 -38 478zM897 963q0 -266 10 -373q27 -229 115 -395l74 -43q68 -2 266 131 q135 88 227 313q78 193 78 330q0 225 -168 481q-190 289 -424 289q-106 0 -151 -297q-27 -186 -27 -436z" />
<glyph unicode="&#x2012;" d="M10 1264q16 43 78 100q59 51 117 102q4 88 31 174q35 117 86 129q20 -10 71 -55q-16 -20 -31 -76q-18 -72 -28 -102q47 -29 231 -29v-137q-27 4 -49 4q-94 0 -94 -63q0 -43 14.5 -134.5t14.5 -148.5q25 -14 100 -41q66 -21 78 -35q4 -74 -80 -108q-158 -68 -187 -88v-140 q53 -61 205 -61v-137q-123 -14 -123 -137q0 -20 4.5 -67.5t4.5 -70.5q0 -33 -7 -55h-110v227q-25 31 -53 31q-43 0 -107 -76h-106q0 20 -15.5 68.5t-15.5 64.5l178 111v168q-16 20 -63 37q-63 25 -86 39q86 111 165.5 149.5t90 51t10.5 133.5q0 117 -80 202q-41 6 -143 -112 q-66 82 -101 82zM748 963q0 274 38 475q78 403 289 403q158 0 369 -153q170 -125 209 -197q84 -156 110 -287q23 -107 23 -297q0 -348 -244 -626q-236 -270 -512 -271q-172 0 -244 475q-39 250 -38 478zM897 963q0 -266 10 -373q27 -229 115 -395l74 -43q68 -2 266 131 q135 88 227 313q78 193 78 330q0 225 -168 481q-190 289 -424 289q-106 0 -151 -297q-27 -186 -27 -436z" />
<glyph unicode="&#x2013;" horiz-adv-x="1042" d="M10 1264q9 43 45 100q34 51 67 102q3 88 18 174q20 117 50 129q11 -10 41 -55q-9 -20 -18 -76q-10 -72 -16 -102q27 -29 133 -29v-137q-16 4 -28 4q-54 0 -54 -63q0 -43 8 -134.5t8 -148.5q15 -14 58 -41q38 -21 45 -35q2 -74 -46 -108q-91 -68 -108 -88v-140 q31 -61 118 -61v-137q-71 -14 -71 -137q0 -20 2.5 -67.5t2.5 -70.5q0 -33 -4 -55h-63v227q-14 31 -31 31q-24 0 -61 -76h-61q0 20 -9 68.5t-9 64.5l102 111v168q-9 20 -36 37q-36 25 -50 39q50 111 96 149.5t52 51t6 133.5q0 117 -46 202q-24 6 -83 -112q-38 82 -58 82z M436 963q0 274 21 475q45 403 167 403q91 0 213 -153q98 -125 120 -197q49 -156 64 -287q13 -107 13 -297q0 -348 -141 -626q-136 -270 -295 -271q-99 0 -141 475q-22 250 -21 478zM521 963q0 -266 6 -373q16 -229 66 -395l43 -43q39 -2 154 131q77 88 130 313 q45 193 45 330q0 225 -96 481q-110 289 -245 289q-61 0 -87 -297q-16 -186 -16 -436z" />
<glyph unicode="&#x2014;" horiz-adv-x="2066" d="M10 1264q18 43 90 100q68 51 135 102q4 88 36 174q40 117 99 129q23 -10 82 -55q-19 -20 -36 -76q-21 -72 -32 -102q54 -29 266 -29v-137q-31 4 -57 4q-108 0 -108 -63q0 -43 17 -134.5t17 -148.5q28 -14 115 -41q76 -21 90 -35q4 -74 -92 -108q-183 -68 -216 -88v-140 q61 -61 236 -61v-137q-142 -14 -142 -137q0 -20 5.5 -67.5t5.5 -70.5q0 -33 -8 -55h-127v227q-29 31 -61 31q-50 0 -124 -76h-122q0 20 -18 68.5t-18 64.5l206 111v168q-19 20 -73 37q-73 25 -99 39q99 111 190.5 149.5t104 51t12.5 133.5q0 117 -93 202q-47 6 -165 -112 q-76 82 -116 82zM861 963q0 274 44 475q90 403 333 403q182 0 426 -153q196 -125 241 -197q96 -156 126 -287q27 -107 27 -297q0 -348 -281 -626q-273 -270 -591 -271q-198 0 -281 475q-45 250 -44 478zM1033 963q0 -266 11 -373q32 -229 133 -395l85 -43q79 -2 307 131 q156 88 262 313q90 193 90 330q0 225 -194 481q-219 289 -489 289q-122 0 -174 -297q-31 -186 -31 -436z" />
<glyph unicode="&#x202f;" horiz-adv-x="404" />
<glyph unicode="&#x205f;" horiz-adv-x="505" />
<glyph unicode="&#xe000;" horiz-adv-x="1751" d="M0 0v1751h1751v-1751h-1751z" />
</font>
</defs>
</svg>
